<?xml version="1.0" standalone="no"?> <!DOCTYPE svg PUBLIC "-//W3C//DTD SVG 1.0//EN" "http://www.w3.org/TR/2001/REC-SVG-20010904/DTD/svg10.dtd" > <svg xmlns="http://www.w3.org/2000/svg" width="100%" height="100%">
<defs >
<font id="Yandex" horiz-adv-x="539" ><font-face
    font-family="Yandex Sans Text"
    units-per-em="1000"
    panose-1="0 0 0 0 0 0 0 0 0 0"
    ascent="950"
    descent="-250"
    alphabetic="0" />
<missing-glyph horiz-adv-x="196" />
<glyph unicode=" " glyph-name="space" horiz-adv-x="196" />
<glyph unicode="!" glyph-name="exclam" horiz-adv-x="285" d="M188 716L178 191H107L99 716H188ZM142 -6Q115 -6 98 11T80 55Q80 81 97 98T142 116Q169 116 186 99T204 55Q204 29 187 12T142 -6Z" />
<glyph unicode="&quot;" glyph-name="quotedbl" horiz-adv-x="407" d="M82 716H178L168 479H92L82 716ZM229 716H325L315 479H239L229 716Z" />
<glyph unicode="#" glyph-name="numbersign" horiz-adv-x="689" d="M437 459H287L250 277H400L437 459ZM385 207H235L193 0H113L155 207H45V277H170L207 459H72V529H222L260 716H340L302 529H452L490 716H570L532 529H643V459H517L480 277H616V207H465L423 0H343L385
207Z" />
<glyph unicode="$" glyph-name="dollar" horiz-adv-x="556" d="M138 534Q138 510 145 492T166 461T198 438T238 421V642Q180 633 159 605T138 534ZM415 192Q415 242 391 266T313 308V74Q362 84 388 112T415 192ZM238 -140V-9Q200 -7 169 1T114 19T73 41T47 61L64
139Q90 119 132 98T238 71V329Q201 339 167 353T107 390T66 446T50 530Q50 611 98 661T238 723V846H313V726Q373 723 409 709T469 681L455 599Q422 619 389 631T313 645V402Q350 392 384 378T446 341T489 283T506 196Q506 147 491 111T450 51T388 12T313 -7V-140H238Z"
/>
<glyph unicode="%" glyph-name="percent" horiz-adv-x="670" d="M65 -10L526 726H604L143 -10H65ZM297 539Q297 491 286 456T256 399T212 365T159 354Q131 354 107 364T64 396T34 452T23 535Q23 583 34 618T63 676T106 711T159 722Q187 722 212 712T256 679T286
622T297 539ZM99 537Q99 471 114 445T159 418Q190 418 205 444T220 537Q220 603 205 630T159 657Q129 657 114 630T99 537ZM647 179Q647 131 636 97T607 39T563 5T509 -6Q481 -6 457 4T414 36T384 92T373 175Q373 223 384 258T413 316T456 351T509 362Q537 362
562 352T606 319T636 262T647 179ZM449 177Q449 111 464 85T509 58Q541 58 555 84T570 177Q570 243 556 270T509 297Q479 297 464 270T449 177Z" />
<glyph unicode="&amp;" glyph-name="ampersand" horiz-adv-x="780" d="M679 9Q635 9 596 26T515 74Q474 36 421 13T297 -10Q234 -10 187 5T108 48T61 113T45 194Q45 231 55 260T84 311T128 351T182 382Q107 464 107 549Q107 585 120 617T158 674T220 712T306 726Q354
726 392 713T455 675T494 619T508 551Q508 509 493 479T454 426T399 387T334 358L462 236L509 193Q541 243 558 299T583 403L663 381Q652 321 630 258T571 139Q600 116 630 102T695 88Q720 88 738 93Q748 95 756 98V24Q746 20 735 16Q725 13 711 11T679 9ZM301
69Q348 69 385 84T452 126Q435 141 417 158T378 193L237 328Q190 308 162 277T134 197Q134 138 176 104T301 69ZM198 549Q198 510 221 477T277 413Q308 425 334 438T379 468T409 505T420 551Q420 596 390 621T307 647Q254 647 226 621T198 549Z" />
<glyph unicode="&apos;" glyph-name="quotesingle" horiz-adv-x="261" d="M82 716H178L168 479H92L82 716Z" />
<glyph unicode="(" glyph-name="parenleft" horiz-adv-x="288" d="M188 -139Q112 -50 79 59T46 307Q46 445 79 560T188 756H276Q195 676 163 562T131 310Q131 172 163 62T276 -139H188Z" />
<glyph unicode=")" glyph-name="parenright" horiz-adv-x="288" d="M100 -139Q176 -50 209 59T242 307Q242 445 209 560T100 756H12Q93 676 125 562T157 310Q157 172 125 62T12 -139H100Z" />
<glyph unicode="*" glyph-name="asterisk" horiz-adv-x="455" d="M227 494L156 369L89 418L185 524L45 554L70 632L201 573L187 716H268L253 572L383 632L409 554L269 524L365 418L299 369L227 494Z" />
<glyph unicode="+" glyph-name="plus" horiz-adv-x="556" d="M575 302V92H493V302H293V372H493V582H575V372H775V302H575Z" />
<glyph unicode="," glyph-name="comma" horiz-adv-x="257" d="M64 -100Q81 -77 95 -50T113 -3Q93 2 81 18T68 56Q68 82 84 99T129 116Q157 116 174 98T192 47Q192 26 185 3T168 -42T144 -84T118 -119L64 -100Z" />
<glyph unicode="-" glyph-name="hyphen" horiz-adv-x="370" d="M65 345H305V265H65V345Z" />
<glyph unicode="." glyph-name="period" horiz-adv-x="257" d="M129 -6Q101 -6 83 12T64 57Q64 85 82 103T129 121Q157 121 175 103T193 57Q193 31 175 13T129 -6Z" />
<glyph unicode="/" glyph-name="slash" horiz-adv-x="407" d="M5 -120L322 756H402L86 -120H5Z" />
<glyph unicode="0" glyph-name="zero" horiz-adv-x="556" d="M280 -10Q229 -10 186 11T111 78T62 193T44 359Q44 455 61 524T110 638T185 704T280 726Q331 726 374 705T448 640T496 526T514 361Q514 265 497 196T448 80T374 12T280 -10ZM279 69Q313 69 339 84T383
133T410 222T420 358Q420 438 411 493T384 583T340 632T280 647Q246 647 220 632T175 583T147 494T137 358Q137 278 146 223T174 133T218 84T279 69Z" />
<glyph unicode="1" glyph-name="one" horiz-adv-x="556" d="M284 0V603L86 452V553L299 716H376V0H284Z" />
<glyph unicode="2" glyph-name="two" horiz-adv-x="556" d="M52 0V93Q144 166 210 223T320 329T385 420T406 511Q406 572 368 608T254 645Q205 645 160 627T80 580L69 674Q103 699 152 712T263 726Q321 726 365 711T439 669T484 604T500 520Q500 460 476 407T406
302T296 197T150 85H506V0H52Z" />
<glyph unicode="3" glyph-name="three" horiz-adv-x="556" d="M238 -10Q178 -10 129 4T50 45L74 133Q101 110 140 91T236 71Q320 71 361 105T402 204Q402 264 366 298T250 332H150V414H254Q309 414 343 445T378 533Q378 585 344 615T236 645Q187 645 145 628T77
588L63 677Q133 726 241 726Q295 726 337 712T408 674T452 615T467 538Q467 505 457 478T431 431T392 399T344 380Q374 375 401 361T450 324T483 270T496 199Q496 153 478 115T425 49T344 6T238 -10Z" />
<glyph unicode="4" glyph-name="four" horiz-adv-x="556" d="M341 620L121 246H341V620ZM428 170V0H341V170H30V232L311 716H428V246H525V170H428Z" />
<glyph unicode="5" glyph-name="five" horiz-adv-x="556" d="M244 -10Q185 -10 135 2T56 34L79 123Q108 103 147 87T244 71Q319 71 360 114T402 229Q402 304 365 338T268 372Q220 372 192 358T149 328H77V716H457V631H158V415Q178 430 207 441T280 452Q326 452
365 438T434 396T480 327T497 231Q497 177 480 133T431 57T351 8T244 -10Z" />
<glyph unicode="6" glyph-name="six" horiz-adv-x="556" d="M286 -14Q229 -14 183 4T103 58T53 145T35 262Q35 354 66 427T144 557T242 651T337 712H473V703Q339 634 253 554T141 373Q170 415 210 436T310 458Q355 458 394 444T462 400T508 328T525 225Q525 171
508 127T458 52T382 3T286 -14ZM283 64Q315 64 342 73T389 102T420 152T431 223Q431 304 394 342T291 381Q260 381 237 374T194 353T159 321T129 281V262Q129 207 141 169T173 108T222 75T283 64Z" />
<glyph unicode="7" glyph-name="seven" horiz-adv-x="556" d="M108 0L413 631H48V716H510V636L205 0H108Z" />
<glyph unicode="8" glyph-name="eight" horiz-adv-x="556" d="M280 -10Q228 -10 184 3T108 43T58 107T40 193Q40 262 76 310T174 381Q124 401 95 441T65 543Q65 587 81 621T126 678T194 714T280 726Q325 726 363 715T431 680T476 624T493 545Q493 484 463 443T384
381Q444 360 480 313T517 196Q517 148 499 110T449 45T374 4T280 -10ZM280 416Q334 416 368 447T402 532Q402 586 368 616T280 647Q227 647 192 617T156 532Q156 478 191 447T280 416ZM280 69Q311 69 337 78T383 105T414 149T425 208Q425 241 414 267T384 310T338
337T280 347Q248 347 221 338T173 311T142 267T131 208Q131 175 142 149T173 106T220 79T280 69Z" />
<glyph unicode="9" glyph-name="nine" horiz-adv-x="556" d="M271 727Q328 727 374 709T454 655T504 568T522 451Q522 359 493 285T420 155T328 61T241 0H104V9Q230 78 310 158T417 339Q388 297 348 276T248 255Q203 255 164 269T95 312T49 385T32 488Q32 541
49 585T99 660T174 709T271 727ZM275 648Q210 648 168 610T126 490Q126 408 164 370T266 331Q297 331 321 338T364 359T398 391T428 431V451Q428 506 416 543T384 604T335 637T275 648Z" />
<glyph unicode=":" glyph-name="colon" horiz-adv-x="288" d="M145 377Q117 377 99 395T80 440Q80 468 98 486T145 504Q173 504 191 486T209 440Q209 414 191 396T145 377ZM145 -6Q117 -6 99 12T80 57Q80 85 98 103T145 121Q173 121 191 103T209 57Q209 31 191
13T145 -6Z" />
<glyph unicode=";" glyph-name="semicolon" horiz-adv-x="288" d="M81 -100Q98 -77 112 -50T130 -3Q110 2 98 18T85 56Q85 82 101 99T146 116Q174 116 191 98T209 47Q209 26 202 3T185 -42T161 -84T135 -119L81 -100ZM145 377Q117 377 99 395T80 440Q80 468 98
486T145 504Q173 504 191 486T209 440Q209 414 191 396T145 377Z" />
<glyph unicode="&lt;" glyph-name="less" horiz-adv-x="556" d="M72 292V382L484 572V492L148 337L484 182V102L72 292Z" />
<glyph unicode="=" glyph-name="equal" horiz-adv-x="556" d="M292 397V467H775V397H292ZM292 207V277H775V207H292Z" />
<glyph unicode="&gt;" glyph-name="greater" horiz-adv-x="556" d="M72 182L408 337L72 492V572L484 382V292L72 102V182Z" />
<glyph unicode="?" glyph-name="question" horiz-adv-x="480" d="M435 530Q435 494 428 467T407 418T374 378T332 344Q311 330 289 317T248 288T217 253T205 209V191H130V208Q130 251 142 281T175 333T220 371T269 402Q301 423 323 451T345 531Q345 584 312 615T203
647Q150 647 115 635T65 613L44 688Q51 692 63 698T95 711T139 721T200 726Q260 726 304 712T377 671T421 609T435 530ZM171 -6Q144 -6 127 11T109 55Q109 81 126 98T171 116Q198 116 215 99T233 55Q233 29 216 12T171 -6Z" />
<glyph unicode="@" glyph-name="at" horiz-adv-x="1073" d="M542 -199Q439 -199 350 -171T194 -88T89 48T51 237Q51 346 88 436T193 590T354 690T561 726Q655 726 739 701T886 626T986 503T1023 336Q1023 275 1008 219T962 119T886 49T782 23Q748 23 723 31T680
53T651 87T634 128Q606 76 563 50T466 23Q433 23 401 34T344 71T304 136T289 233Q289 289 305 337T351 422T422 478T511 499Q564 499 602 473T657 390L696 469H753L707 219Q704 199 705 177T716 137T742 106T790 94Q822 94 850 110T898 157T931 230T943 323Q943
403 913 465T829 570T706 635T556 657Q464 657 386 628T251 544T162 413T130 242Q130 146 162 76T249 -39T381 -107T545 -130Q628 -130 682 -115T762 -87L777 -152Q763 -161 739 -169T683 -184T616 -195T542 -199ZM375 229Q375 189 385 163T411 121T448 99T489
92Q523 92 550 109T597 153T626 217T637 292Q637 330 627 356T601 397T565 420T525 427Q490 427 462 411T415 367T385 304T375 229Z" />
<glyph unicode="A" glyph-name="A" horiz-adv-x="661" d="M324 641L208 288H441L324 641ZM468 205H181L113 0H25L260 716H400L636 0H536L468 205Z" />
<glyph unicode="B" glyph-name="B" horiz-adv-x="625" d="M184 631V411H283Q352 411 394 441T437 537Q437 592 399 611T291 631H184ZM184 326V85H299Q337 85 368 91T421 111T456 148T469 205Q469 273 426 299T289 326H184ZM89 716H291Q408 716 470 677T532 542Q532
466 494 427T392 373Q479 364 523 326T568 207Q568 151 548 112T492 48T407 12T299 0H89V716Z" />
<glyph unicode="C" glyph-name="C" horiz-adv-x="654" d="M397 -10Q322 -10 258 15T147 87T74 203T47 358Q47 445 71 513T141 628T251 701T395 726Q465 726 517 710T603 674L588 582Q549 610 500 625T394 641Q278 641 214 571T149 358Q149 216 218 146T405 75Q456
75 497 90T577 130L603 51Q574 28 522 9T397 -10Z" />
<glyph unicode="D" glyph-name="D" horiz-adv-x="719" d="M184 631V85H320Q375 85 420 102T499 154T550 245T568 376Q568 451 550 500T501 579T425 619T330 631H184ZM89 716H330Q402 716 464 700T572 644T644 541T670 382Q670 287 644 216T571 96T460 24T320 0H89V716Z" />
<glyph unicode="E" glyph-name="E" horiz-adv-x="577" d="M89 716H502V631H184V414H460V329H184V85H507V0H89V716Z" />
<glyph unicode="F" glyph-name="F" horiz-adv-x="547" d="M184 308V0H89V716H496V631H184V393H465V308H184Z" />
<glyph unicode="G" glyph-name="G" horiz-adv-x="749" d="M695 281Q695 218 677 165T620 73T525 12T389 -10Q313 -10 250 16T142 91T72 207T47 358Q47 441 71 509T141 625T257 699T416 726Q494 726 551 708T647 667L632 575Q587 607 532 624T413 641Q345 641 296
622T214 567T165 478T149 358Q149 224 212 150T389 75Q445 75 485 89T550 129T586 190T598 268V288H367V373H695V281V281Z" />
<glyph unicode="H" glyph-name="H" horiz-adv-x="735" d="M552 313H184V0H89V716H184V398H552V716H646V0H552V313Z" />
<glyph unicode="I" glyph-name="I" horiz-adv-x="272" d="M184 716V0H89V716H184Z" />
<glyph unicode="J" glyph-name="J" horiz-adv-x="383" d="M298 716V133Q298 106 288 80T258 34T206 2T131 -10Q105 -10 79 -6T30 7L42 92Q53 87 65 83Q76 80 89 78T119 75Q203 75 203 161V716H298Z" />
<glyph unicode="K" glyph-name="K" horiz-adv-x="641" d="M247 312H184V0H89V716H184V397H243L499 716H605L322 364L615 0H499L247 312Z" />
<glyph unicode="L" glyph-name="L" horiz-adv-x="562" d="M89 716H184V85H511V0H89V716Z" />
<glyph unicode="M" glyph-name="M" horiz-adv-x="887" d="M395 110L178 586V0H89V716H221L443 214L676 716H798V0H703V576L482 109H394L395 110Z" />
<glyph unicode="N" glyph-name="N" horiz-adv-x="755" d="M178 601V0H89V716H216L576 115V716H666V0H538L178 601Z" />
<glyph unicode="O" glyph-name="O" horiz-adv-x="780" d="M390 -10Q318 -10 255 14T146 86T74 202T47 361Q47 451 73 519T146 633T255 702T390 726Q464 726 527 703T635 633T707 519T733 360Q733 271 707 202T636 86T527 15T390 -10ZM390 75Q442 75 486 90T562
139T613 227T632 358Q632 435 614 489T563 576T486 625T390 641Q339 641 295 626T218 577T167 489T148 358Q148 281 166 227T217 140T294 91T390 75Z" />
<glyph unicode="P" glyph-name="P" horiz-adv-x="600" d="M184 631V364H290Q328 364 359 372T412 397T447 441T460 508Q460 573 418 602T298 631H184ZM184 279V0H89V716H298Q420 716 487 666T555 509Q555 448 536 405T481 333T397 292T290 279H184Z" />
<glyph unicode="Q" glyph-name="Q" horiz-adv-x="780" d="M708 -135Q628 -119 564 -101T446 -63T349 -26T265 7Q217 26 177 55T108 127T63 225T47 355Q47 445 73 514T145 630T253 701T389 726Q461 726 524 703T633 634T706 520T733 361Q733 296 720 240T675 138T595
59T474 8Q534 -10 599 -24T742 -47L708 -135ZM390 75Q442 75 486 90T562 139T613 227T632 358Q632 435 614 489T563 576T486 625T390 641Q339 641 295 626T218 577T167 489T148 358Q148 281 166 227T217 140T294 91T390 75Z" />
<glyph unicode="R" glyph-name="R" horiz-adv-x="640" d="M184 0H89V716H308Q435 716 501 667T568 512Q568 418 523 368T403 301L599 0H493L305 291H184V0ZM184 631V376H300Q338 376 369 383T422 406T457 448T470 514Q470 578 428 604T308 631H184Z" />
<glyph unicode="S" glyph-name="S" horiz-adv-x="595" d="M283 -10Q242 -10 205 -4T137 12T82 34T43 59L58 149Q73 137 96 124T149 100T212 82T283 75Q361 75 407 104T454 194Q454 224 443 243T411 276T359 299T285 320Q243 331 201 345T126 382T72 440T51 529Q51
621 115 673T309 726Q350 726 382 722T438 711T480 696T511 681L499 590Q464 613 416 627T309 641Q263 641 232 634T181 612T153 578T144 533Q144 503 157 483T193 450T245 427T306 411Q348 400 392 388T471 352T528 293T551 198Q551 141 529 102T469 37T384 1T283
-10Z" />
<glyph unicode="T" glyph-name="T" horiz-adv-x="587" d="M341 630V0H245V630H35V716H552V630H341Z" />
<glyph unicode="U" glyph-name="U" horiz-adv-x="708" d="M72 716H167V245Q167 158 216 116T353 74Q394 74 429 84T491 116T531 170T546 245V716H636V248Q636 186 614 138T554 57T464 7T351 -10Q291 -10 240 6T152 54T93 133T72 244V716Z" />
<glyph unicode="V" glyph-name="V" horiz-adv-x="637" d="M16 716H114L322 62L531 716H621L393 0H245L16 716Z" />
<glyph unicode="W" glyph-name="W" horiz-adv-x="941" d="M26 716H124L259 86L424 716H530L690 98L825 716H915L758 0H620L473 589L323 0H185L26 716Z" />
<glyph unicode="X" glyph-name="X" horiz-adv-x="657" d="M322 307L113 0H13L275 377L47 716H159L343 443L518 716H618L389 375L643 0H530L322 307Z" />
<glyph unicode="Y" glyph-name="Y" horiz-adv-x="611" d="M259 0V307L13 716H122L310 390L502 716H598L355 312V0H259Z" />
<glyph unicode="Z" glyph-name="Z" horiz-adv-x="604" d="M48 0V68L430 631H59V716H544V648L161 85H545V0H48Z" />
<glyph unicode="[" glyph-name="bracketleft" horiz-adv-x="288" d="M46 756H261V681H131V-64H261V-139H46V756Z" />
<glyph unicode="\" glyph-name="backslash" horiz-adv-x="407" d="M5 756H86L402 -120H322L5 756Z" />
<glyph unicode="]" glyph-name="bracketright" horiz-adv-x="288" d="M242 756H27V681H157V-64H27V-139H242V756Z" />
<glyph unicode="^" glyph-name="asciicircum" horiz-adv-x="461" d="M231 644L110 458H35L180 716H280L425 458H351L231 644Z" />
<glyph unicode="_" glyph-name="underscore" horiz-adv-x="400" d="M-5 -40H405V-115H-5V-40Z" />
<glyph unicode="`" glyph-name="grave" horiz-adv-x="461" d="M240 588L127 746H239L315 588H240Z" />
<glyph unicode="a" glyph-name="a" horiz-adv-x="529" d="M219 69Q247 69 270 77T312 98T345 126T370 156V242H302Q208 242 170 218T132 148Q132 113 153 91T219 69ZM375 86Q364 69 349 52T312 21T262 -1T200 -10Q130 -10 87 29T44 143Q44 312 294 312H370V351Q370
405 342 428T247 451Q196 451 157 438T88 408L67 481Q94 498 142 513T253 529Q353 529 405 488T458 362V84Q458 75 458 64T459 40T461 18T463 0H382Q380 14 378 39T375 84V86Z" />
<glyph unicode="b" glyph-name="b" horiz-adv-x="612" d="M338 -10Q278 -10 234 18T163 98L160 0H77V716H165V422Q191 471 235 500T342 529Q387 529 428 513T501 463T551 379T570 260Q570 191 551 141T500 57T426 7T338 -10ZM325 69Q394 69 436 116T479 260Q479
354 437 402T325 451Q291 451 262 439T211 404T177 344T164 260Q164 212 176 176T210 116T261 81T325 69Z" />
<glyph unicode="c" glyph-name="c" horiz-adv-x="493" d="M300 -10Q243 -10 195 8T113 60T59 144T40 258Q40 321 59 371T114 457T196 510T300 529Q347 529 387 519T455 489L433 413Q408 427 376 439T301 451Q223 451 177 403T130 258Q130 167 176 118T300 69Q338
69 369 79T428 105L449 32Q421 12 385 1T300 -10Z" />
<glyph unicode="d" glyph-name="d" horiz-adv-x="612" d="M289 69Q322 69 351 80T401 116T435 176T448 260Q448 308 436 344T402 404T351 439T289 451Q220 451 176 403T132 260Q132 164 176 117T289 69ZM451 101Q427 51 384 21T275 -10Q228 -10 186 6T112 56T61
140T42 260Q42 328 61 378T112 462T186 512T276 529Q335 529 378 505T447 435V716H535V0H458L451 101Z" />
<glyph unicode="e" glyph-name="e" horiz-adv-x="543" d="M285 451Q227 451 186 416T134 310H413Q415 346 406 372T380 416T339 442T285 451ZM492 44Q481 36 465 27T425 10T373 -4T307 -10Q176 -10 108 61T40 260Q40 323 58 373T110 457T188 510T287 529Q342 529
386 510T458 454T497 363T497 236H131Q136 152 182 111T312 69Q367 69 405 86T469 122L492 44Z" />
<glyph unicode="f" glyph-name="f" horiz-adv-x="382" d="M196 444V0H108V444H45V519H108V532Q108 624 157 675T291 726Q333 726 362 716L346 637Q339 640 325 643T295 647Q249 647 223 619T196 532V519H346V444H196Z" />
<glyph unicode="g" glyph-name="g" horiz-adv-x="604" d="M288 100Q320 100 347 110T395 143T427 197T439 274Q439 319 428 352T396 407T348 440T287 451Q254 451 226 440T176 407T143 352T131 274Q131 230 143 198T176 144T225 111T288 100ZM259 -179Q186 -179
140 -167T72 -142L90 -61Q115 -74 155 -87T260 -100Q357 -100 397 -61T438 48V123Q415 77 374 49T271 21Q225 21 184 37T111 84T61 163T42 274Q42 338 60 385T110 465T184 513T273 529Q335 529 377 501T444 425L445 436Q445 454 447 479T452 519H531Q529 505 528
479T526 436V49Q526 -1 511 -43T464 -115T381 -162T259 -179Z" />
<glyph unicode="h" glyph-name="h" horiz-adv-x="586" d="M323 451Q263 451 226 424T165 353V0H77V716H165V519L163 426H165Q186 469 231 499T345 529Q422 529 467 489T513 364V0H425V355Q425 409 398 430T323 451Z" />
<glyph unicode="i" glyph-name="i" horiz-adv-x="241" d="M122 595Q96 595 80 611T63 652Q63 675 79 692T122 710Q148 710 163 693T178 652Q178 628 163 612T122 595ZM165 519V0H77V519H165Z" />
<glyph unicode="j" glyph-name="j" horiz-adv-x="253" d="M132 595Q106 595 90 611T74 652Q74 675 90 692T132 710Q158 710 174 693T190 652Q190 628 174 612T132 595ZM-16 -107Q15 -104 35 -95T68 -71T84 -38T89 1V519H176V7Q176 -74 135 -125T-2 -186L-16 -107Z" />
<glyph unicode="k" glyph-name="k" horiz-adv-x="519" d="M211 221H165V0H77V716H165V296H215L397 519H497L284 263L501 0H394L211 221Z" />
<glyph unicode="l" glyph-name="l" horiz-adv-x="241" d="M165 716V0H77V716H165Z" />
<glyph unicode="m" glyph-name="m" horiz-adv-x="893" d="M165 0H77V519H155L163 426H165Q186 469 228 499T338 529Q397 529 436 501T488 415Q510 468 555 498T666 529Q738 529 780 489T822 364V0H733V353Q733 404 708 427T640 451Q611 451 589 443T550 419T519
384T493 342V0H405V363Q405 413 380 432T312 451Q284 451 262 444T223 424T191 393T165 352V0Z" />
<glyph unicode="n" glyph-name="n" horiz-adv-x="586" d="M323 451Q263 451 226 424T165 353V0H77V519H160L163 426H165Q186 471 231 500T345 529Q422 529 467 489T513 364V0H425V355Q425 409 398 430T323 451Z" />
<glyph unicode="o" glyph-name="o" horiz-adv-x="582" d="M290 -10Q237 -10 191 8T112 60T59 145T40 260Q40 324 59 374T111 459T191 511T290 529Q344 529 390 511T469 459T522 375T542 260Q542 195 523 145T470 61T390 8T290 -10ZM290 69Q325 69 355 80T406 115T440
175T453 260Q453 309 441 345T407 404T355 439T290 451Q255 451 226 440T176 405T142 345T130 260Q130 211 142 175T175 116T226 81T290 69Z" />
<glyph unicode="p" glyph-name="p" horiz-adv-x="612" d="M325 69Q394 69 436 116T479 260Q479 354 437 402T325 451Q291 451 262 439T211 404T177 344T164 260Q164 212 176 176T210 116T261 81T325 69ZM338 -10Q278 -10 235 18T165 95V-177H77V519H155L163 417Q189
468 233 498T342 529Q387 529 428 513T501 463T551 379T570 260Q570 191 551 141T500 57T426 7T338 -10Z" />
<glyph unicode="q" glyph-name="q" horiz-adv-x="612" d="M447 -177V93Q423 46 381 18T275 -10Q228 -10 186 6T112 56T61 140T42 260Q42 328 61 378T112 462T186 512T276 529Q338 529 382 502T452 426L453 436Q453 454 455 479T459 519H540Q538 505 537 479T535
436V-177H447ZM289 69Q322 69 351 80T401 116T435 176T448 260Q448 308 436 344T402 403T351 439T289 451Q220 451 176 403T132 260Q132 164 176 117T289 69Z" />
<glyph unicode="r" glyph-name="r" horiz-adv-x="369" d="M334 431Q278 426 233 403T165 330V0H77V519H155L163 406H165Q187 452 228 486T334 529V431V431Z" />
<glyph unicode="s" glyph-name="s" horiz-adv-x="492" d="M243 -10Q172 -10 125 3T47 37L68 114Q96 94 141 79T246 64Q295 64 328 83T361 145Q361 168 352 181T326 203T286 216T237 226Q205 233 173 242T116 269T74 312T58 378Q58 448 111 488T261 529Q315 529
355 519T428 493L407 418Q391 427 376 434T343 445T306 452T260 455Q206 455 176 439T145 380Q145 363 153 352T175 332T210 319T256 307Q290 300 324 292T386 267T431 222T449 147Q449 102 431 72T383 24T317 -2T243 -10Z" />
<glyph unicode="t" glyph-name="t" horiz-adv-x="381" d="M344 14Q328 4 298 -3T239 -10Q201 -10 174 1T130 30T105 72T97 121V444H35V519H97V628H186V519H336V444H186V132Q186 99 202 84T251 69Q271 69 291 74T329 90L344 14V14Z" />
<glyph unicode="u" glyph-name="u" horiz-adv-x="575" d="M410 93Q389 49 346 20T232 -10Q160 -10 116 30T71 156V519H160V156Q160 130 167 114T188 87T218 73T257 69Q315 69 350 95T410 166V519H498V0H421L412 93H410V93Z" />
<glyph unicode="v" glyph-name="v" horiz-adv-x="507" d="M26 519H121L258 51L404 519H493L325 0H182L26 519Z" />
<glyph unicode="w" glyph-name="w" horiz-adv-x="774" d="M35 519H128L222 69L343 519H442L560 74L653 519H739L627 0H492L386 398L279 0H148L35 519Z" />
<glyph unicode="x" glyph-name="x" horiz-adv-x="513" d="M251 205L110 0H21L208 269L40 519H145L270 334L389 519H480L312 272L493 0H389L251 205Z" />
<glyph unicode="y" glyph-name="y" horiz-adv-x="521" d="M111 -187Q94 -187 80 -185T56 -179L67 -102Q72 -104 82 -106T109 -108Q146 -108 170 -91T215 -35L15 519H110L263 79L419 519H505L322 6Q288 -88 240 -137T111 -187Z" />
<glyph unicode="z" glyph-name="z" horiz-adv-x="459" d="M40 0V57L304 444H48V519H412V462L150 75H413V0H40Z" />
<glyph unicode="{" glyph-name="braceleft" horiz-adv-x="288" d="M273 -136Q251 -139 232 -139Q171 -140 133 -106T95 2Q95 24 99 42T107 79T116 115T120 155Q120 180 117 200T104 234T76 258T27 270V345Q58 348 76 357T104 380T117 415T120 460Q120 481 116
499T108 536T99 572T95 613Q95 649 104 678T135 727T181 751T224 756Q247 756 273 751V680Q221 689 203 669T184 608Q184 586 187 567T193 530T200 494T203 454Q203 433 199 412T184 372T153 336T99 307Q132 295 152 279T184 243T199 203T203 161Q203 140 200 121T194
84T187 48T184 7Q184 -34 201 -53T273 -65V-136V-136Z" />
<glyph unicode="|" glyph-name="bar" horiz-adv-x="295" d="M190 756V-120H105V756H190Z" />
<glyph unicode="}" glyph-name="braceright" horiz-adv-x="288" d="M15 -136Q37 -139 56 -139Q117 -140 155 -106T193 2Q193 24 189 42T181 79T172 115T168 155Q168 180 171 200T184 234T212 258T261 270V345Q230 348 212 357T184 380T171 415T168 460Q168 481
172 499T180 536T189 572T193 613Q193 649 184 678T153 727T107 751T64 756Q41 756 15 751V680Q67 689 85 669T104 608Q104 586 101 567T95 530T88 494T85 454Q85 433 89 412T104 372T135 336T189 307Q156 295 136 279T104 243T89 203T85 161Q85 140 88 121T94
84T101 48T104 7Q104 -34 87 -53T15 -65V-136V-136Z" />
<glyph unicode="~" glyph-name="asciitilde" horiz-adv-x="620" d="M57 247Q52 280 57 311T80 366T125 405T196 420Q236 420 268 407T326 377T376 347T422 333Q455 333 469 355T482 426H561Q566 394 561 363T538 308T492 268T422 253Q381 253 350 266T292 296T242
326T197 340Q165 340 150 318T136 247H57V247Z" />
<glyph unicode="&#xa0;" glyph-name="uni00A0" horiz-adv-x="196" />
<glyph unicode="&#xa1;" glyph-name="exclamdown" horiz-adv-x="285" d="M86 -193L96 332H167L175 -193H86ZM132 529Q159 529 176 512T194 468Q194 442 177 425T132 407Q105 407 88 424T70 468Q70 494 87 511T132 529Z" />
<glyph unicode="&#xa2;" glyph-name="cent" horiz-adv-x="556" d="M357 649V528Q386 525 412 519Q453 509 480 489L458 417Q433 431 401 443Q381 450 357 453V66Q376 69 394 75Q425 85 453 101L474 32Q446 12 410 1Q386 -6 357 -9V-140H284V-7Q250 -3 220 8Q172
26 138 60T84 144T65 258Q65 321 84 371T139 457T221 510Q251 522 284 526V649H357ZM201 405Q155 355 155 258Q155 167 201 116Q234 79 284 69V451Q234 440 201 405Z" />
<glyph unicode="&#xa3;" glyph-name="sterling" horiz-adv-x="556" d="M518 0H49V51Q77 72 96 91T127 131T143 174T148 223Q148 247 144 268T134 310H42V383H108Q97 413 89 445T80 515Q80 611 141 668T320 726Q380 726 420 715T485 687L467 606Q442 621 405 633T321
645Q241 645 206 607T172 507Q173 469 182 441T203 383H385V310H227Q233 283 233 251Q233 204 220 164T164 80H518V0Z" />
<glyph unicode="&#xa4;" glyph-name="currency" horiz-adv-x="577" d="M409 174Q383 157 353 147T289 136Q254 136 224 146T167 174L94 101L45 149L119 223Q101 249 91 279T80 344Q80 379 90 409T119 466L45 539L94 588L167 514Q193 532 223 542T289 553Q322 553
353 543T410 514L483 588L532 539L459 466Q476 440 486 410T497 344Q497 309 487 279T459 223L532 149L482 101L409 174ZM290 482Q264 482 242 473T202 446T174 403T164 344Q164 311 174 286T201 243T241 216T290 206Q315 206 338 215T377 242T404 285T414 344Q414
377 404 402T378 446T338 473T290 482Z" />
<glyph unicode="&#xa5;" glyph-name="yen" horiz-adv-x="556" d="M324 149V0H235V149H76V219H235V299H76V369H213L11 716H113L282 410L456 716H547L345 369H484V299H324V219H484V149H324Z" />
<glyph unicode="&#xa6;" glyph-name="brokenbar" horiz-adv-x="295" d="M190 756V356H105V756H190ZM190 280V-120H105V280H190Z" />
<glyph unicode="&#xa7;" glyph-name="section" horiz-adv-x="596" d="M312 172Q378 172 416 198T454 272Q454 368 292 368Q215 368 176 345T136 273Q136 244 151 225T192 194T249 177T312 172ZM264 -187Q219 -187 184 -182T121 -167T76 -148T46 -127L62 -51Q74
-62 94 -73T141 -93T199 -108T264 -114Q335 -114 377 -89T420 -13Q420 13 410 30T381 59T332 79T265 96Q221 106 182 118T114 150T69 197T52 267Q52 324 86 361T182 416Q133 441 110 475T86 559Q86 635 145 680T326 726Q362 726 389 723T438 713T476 701T505 688L488
612Q419 654 326 654Q239 654 205 629T170 562Q170 536 182 518T215 488T263 469T319 456Q359 448 398 437T469 405T521 353T541 276Q541 168 418 130Q507 84 507 -10Q507 -57 487 -90T433 -145T355 -177T264 -187Z" />
<glyph unicode="&#xa8;" glyph-name="dieresis" horiz-adv-x="461" d="M338 595Q312 595 297 611T281 650Q281 675 296 691T338 708Q364 708 379 692T395 650Q395 627 380 611T338 595ZM122 595Q97 595 81 611T65 650Q65 675 81 691T122 708Q148 708 163 692T179
650Q179 627 164 611T122 595Z" />
<glyph unicode="&#xa9;" glyph-name="copyright" horiz-adv-x="912" d="M456 -96Q369 -96 294 -66T164 20T77 150T45 316Q45 406 76 481T163 610T294 695T456 726Q543 726 618 696T749 611T835 481T867 316Q867 226 836 151T749 20T619 -65T456 -96ZM456 -34Q532
-34 595 -8T704 64T775 175T800 316Q800 392 775 456T705 566T596 638T456 664Q380 664 317 639T209 567T138 456T112 316Q112 240 137 176T208 65T317 -8T456 -34ZM478 100Q380 100 322 156T264 312Q264 363 279 403T323 472T391 514T477 529Q515 529 545 521T592
501L572 433Q553 447 528 453T476 460Q417 460 381 424T344 313Q344 240 379 205T474 169Q506 169 528 176T571 201L592 133Q577 120 548 110T478 100Z" />
<glyph unicode="&#xaa;" glyph-name="ordfeminine" horiz-adv-x="469" d="M199 383Q234 383 258 398T298 432T320 470T327 497V529H253Q185 529 155 510T124 452Q124 421 142 402T199 383ZM330 408Q322 392 310 375T280 345T238 323T180 314Q120 314 82 348T44
447Q44 521 96 555T245 590H327V626Q327 673 304 692T231 711Q186 711 153 699T90 669L74 739Q98 754 139 768T232 782Q317 782 362 747T407 637V395Q407 388 407 378T408 358T409 339T411 323H338Q336 335 334 357T331 395L330 408Z" />
<glyph unicode="&#xab;" glyph-name="guillemotleft" horiz-adv-x="521" d="M177 69L51 264L177 459H270L144 264L270 69H177ZM388 69L260 264L388 459H480L354 264L480 69H388Z" />
<glyph unicode="&#xac;" glyph-name="logicalnot" horiz-adv-x="598" d="M456 102V302H56V372H538V102H456Z" />
<glyph unicode="&#xae;" glyph-name="registered" horiz-adv-x="912" d="M456 -96Q369 -96 294 -66T164 20T77 150T45 316Q45 406 76 481T163 610T294 695T456 726Q543 726 618 696T749 611T835 481T867 316Q867 226 836 151T749 20T619 -65T456 -96ZM456 -34Q532
-34 595 -8T704 64T775 175T800 316Q800 392 775 456T705 566T596 638T456 664Q380 664 317 639T209 567T138 456T112 316Q112 240 137 176T208 65T317 -8T456 -34ZM389 454V328H454Q493 328 515 342T538 394Q538 428 517 441T456 454H389ZM458 258H389V107H310V524H456Q535
524 577 494T619 398Q619 348 597 318T537 273L634 107H546L458 258Z" />
<glyph unicode="&#xaf;" glyph-name="macron" horiz-adv-x="461" d="M86 687H375V616H86V687Z" />
<glyph unicode="&#xb0;" glyph-name="degree" horiz-adv-x="514" d="M257 362Q218 362 185 375T127 413T89 471T75 544Q75 584 89 617T127 675T184 712T257 726Q296 726 329 713T387 675T425 618T439 544Q439 505 426 472T388 414T330 376T257 362ZM257 423Q310
423 341 456T372 544Q372 598 341 631T257 665Q205 665 174 632T142 544Q142 489 173 456T257 423Z" />
<glyph unicode="&#xb1;" glyph-name="plusminus" horiz-adv-x="556" d="M575 302V130H492V302H292V372H492V582H575V372H775V302H575ZM292 0V70H775V0H292Z" />
<glyph unicode="&#xb2;" glyph-name="two.sup" horiz-adv-x="405" d="M40 325V401Q99 444 140 478T208 541T247 595T259 644Q259 679 237 698T170 717Q138 717 111 708T65 687L55 752Q72 764 104 773T174 782Q255 782 298 747T342 643Q342 583 288 525T126 393H345V325H40Z"
/>
<glyph unicode="&#xb3;" glyph-name="three.sup" horiz-adv-x="396" d="M167 319Q124 319 89 328T34 349L44 415Q61 404 89 394T157 384Q213 384 235 402T257 455Q257 527 171 527H108V594H174Q204 594 223 610T242 658Q242 686 223 702T158 718Q128 718 104 709T61
688L51 753Q71 765 101 773T169 782Q244 782 283 750T323 663Q323 621 302 596T251 564Q288 558 314 530T341 453Q341 393 296 356T167 319Z" />
<glyph unicode="&#xb4;" glyph-name="acute" horiz-adv-x="461" d="M222 746H334L221 588H145L222 746Z" />
<glyph unicode="&#xb6;" glyph-name="paragraph" horiz-adv-x="645" d="M557 -187H472V716H557V-187ZM306 -187V279H300Q243 279 197 293T116 334T64 402T45 497Q45 606 109 661T292 716H392V-187H306Z" />
<glyph unicode="&#xb7;" glyph-name="periodcentered" horiz-adv-x="244" d="M123 240Q95 240 77 258T58 303Q58 331 76 349T123 367Q151 367 169 349T187 303Q187 277 169 259T123 240Z" />
<glyph unicode="&#xb8;" glyph-name="cedilla" horiz-adv-x="461" d="M291 20L235 -176H131L216 20H291Z" />
<glyph unicode="&#xb9;" glyph-name="one.sup" horiz-adv-x="324" d="M156 325V686L56 593V673L167 776H238V325H156Z" />
<glyph unicode="&#xba;" glyph-name="ordmasculine" horiz-adv-x="508" d="M254 314Q207 314 167 329T98 375T52 449T35 549Q35 605 51 648T97 721T167 766T254 782Q300 782 340 767T410 722T456 649T473 549Q473 493 456 449T410 375T341 330T254 314ZM254 385Q283
385 308 395T351 425T380 476T391 549Q391 591 381 621T352 672T308 701T254 711Q195 711 157 672T118 549Q118 465 156 425T254 385Z" />
<glyph unicode="&#xbb;" glyph-name="guillemotright" horiz-adv-x="521" d="M166 264L40 459H133L260 264L133 69H40L166 264ZM377 264L251 459H343L470 264L343 69H251L377 264Z" />
<glyph unicode="&#xbc;" glyph-name="onequarter" horiz-adv-x="947" d="M139 0L720 716H799L220 0H139ZM762 361L624 166H762V361ZM842 101V1H762V101H545V160L754 452H842V166H907V101H842ZM156 265V626L56 533V613L167 716H238V265H156Z" />
<glyph unicode="&#xbd;" glyph-name="onehalf" horiz-adv-x="1020" d="M139 0L720 716H799L220 0H139ZM644 1V77Q703 120 744 154T812 217T851 271T863 320Q863 355 841 374T774 393Q742 393 715 384T669 363L659 428Q676 440 708 449T778 458Q859 458 902 423T946
319Q946 259 892 201T730 69H949V1H644ZM156 265V626L56 533V613L167 716H238V265H156Z" />
<glyph unicode="&#xbe;" glyph-name="threequarters" horiz-adv-x="1001" d="M193 0L774 716H853L274 0H193ZM816 361L678 166H816V361ZM896 101V1H816V101H599V160L808 452H896V166H961V101H896ZM167 259Q124 259 89 268T34 289L44 355Q61 344 89 334T157 324Q213
324 235 342T257 395Q257 467 171 467H108V534H174Q204 534 223 550T242 598Q242 626 223 642T158 658Q128 658 104 649T61 628L51 693Q71 705 101 713T169 722Q244 722 283 690T323 603Q323 561 302 536T251 504Q288 498 314 470T341 393Q341 333 296 296T167
259Z" />
<glyph unicode="&#xbf;" glyph-name="questiondown" horiz-adv-x="480" d="M45 -7Q45 29 52 56T73 105T106 145T148 179Q169 193 191 206T232 235T263 270T275 314V332H350V315Q350 272 338 242T305 190T260 152T211 121Q179 100 157 72T135 -8Q135 -61 168 -92T277
-124Q330 -124 365 -112T415 -90L436 -165Q429 -169 417 -175T385 -188T341 -198T280 -203Q220 -203 176 -189T103 -148T59 -86T45 -7ZM309 529Q336 529 353 512T371 468Q371 442 354 425T309 407Q282 407 265 424T247 468Q247 494 264 511T309 529Z" />
<glyph unicode="&#xc0;" glyph-name="Agrave" horiz-adv-x="661" d="M324 641L208 288H441L324 641ZM468 205H181L113 0H25L260 716H400L636 0H536L468 205ZM295 773L177 909H298L380 773H295Z" />
<glyph unicode="&#xc1;" glyph-name="Aacute" horiz-adv-x="661" d="M324 641L208 288H441L324 641ZM468 205H181L113 0H25L260 716H400L636 0H536L468 205ZM363 909H484L366 773H281L363 909Z" />
<glyph unicode="&#xc2;" glyph-name="Acircumflex" horiz-adv-x="661" d="M324 641L208 288H441L324 641ZM468 205H181L113 0H25L260 716H400L636 0H536L468 205ZM332 847L252 763H176L281 911H381L487 763H411L332 847Z" />
<glyph unicode="&#xc3;" glyph-name="Atilde" horiz-adv-x="661" d="M324 641L208 288H441L324 641ZM468 205H181L113 0H25L260 716H400L636 0H536L468 205ZM154 783Q150 808 154 832T170 876T202 906T252 918Q278 918 298 910T336 891T367 872T397 863Q438 863
435 922H498Q502 897 498 873T482 830T450 800T400 788Q374 788 354 796T317 815T285 834T255 843Q234 843 225 829T218 783H154V783Z" />
<glyph unicode="&#xc4;" glyph-name="Adieresis" horiz-adv-x="661" d="M324 641L208 288H441L324 641ZM468 205H181L113 0H25L260 716H400L636 0H536L468 205ZM449 786Q423 786 408 802T392 842Q392 866 407 882T449 899Q475 899 490 883T506 842Q506 819 491
803T449 786ZM213 786Q187 786 172 802T157 842Q157 866 172 882T213 899Q239 899 254 883T270 842Q270 819 255 803T213 786Z" />
<glyph unicode="&#xc5;" glyph-name="Aring" horiz-adv-x="661" d="M324 641L208 288H441L324 641ZM468 205H181L113 0H25L260 716H400L636 0H536L468 205ZM330 756Q282 756 251 786T220 865Q220 913 251 943T330 974Q378 974 409 944T441 865Q441 817 410 787T330
756ZM330 811Q353 811 369 826T385 865Q385 889 369 904T330 920Q307 920 292 905T277 865Q277 841 292 826T330 811Z" />
<glyph unicode="&#xc6;" glyph-name="AE" horiz-adv-x="983" d="M474 642L279 299H474V642ZM474 214H231L109 0H14L421 716H908V631H569V414H856V329H569V85H913V0H474V214Z" />
<glyph unicode="&#xc7;" glyph-name="Ccedilla" horiz-adv-x="654" d="M258 15Q194 40 147 87T74 203T47 358Q47 445 71 513T141 628T251 701T395 726Q465 726 517 710T603 674L588 582Q549 610 500 625T394 641Q278 641 214 571T149 358Q149 216 218 146T405
75Q456 75 497 90T577 130L603 51Q574 28 521 9Q472 -9 405 -10L355 -186H251L329 -4Q292 1 258 15Z" />
<glyph unicode="&#xc8;" glyph-name="Egrave" horiz-adv-x="577" d="M89 716H502V631H184V414H460V329H184V85H507V0H89V716ZM279 773L161 909H282L364 773H279Z" />
<glyph unicode="&#xc9;" glyph-name="Eacute" horiz-adv-x="577" d="M89 716H502V631H184V414H460V329H184V85H507V0H89V716ZM340 909H461L343 773H258L340 909Z" />
<glyph unicode="&#xca;" glyph-name="Ecircumflex" horiz-adv-x="577" d="M89 716H502V631H184V414H460V329H184V85H507V0H89V716ZM309 847L229 763H153L258 911H358L464 763H388L309 847Z" />
<glyph unicode="&#xcb;" glyph-name="Edieresis" horiz-adv-x="577" d="M89 716H502V631H184V414H460V329H184V85H507V0H89V716ZM415 786Q389 786 374 802T358 842Q358 866 373 882T415 899Q441 899 456 883T472 842Q472 819 457 803T415 786ZM179 786Q153 786
138 802T123 842Q123 866 138 882T179 899Q205 899 220 883T236 842Q236 819 221 803T179 786Z" />
<glyph unicode="&#xcc;" glyph-name="Igrave" horiz-adv-x="272" d="M184 716V0H89V716H184ZM358 773L240 909H361L443 773H358Z" />
<glyph unicode="&#xcd;" glyph-name="Iacute" horiz-adv-x="272" d="M184 716V0H89V716H184ZM426 909H547L429 773H344L426 909Z" />
<glyph unicode="&#xce;" glyph-name="Icircumflex" horiz-adv-x="272" d="M184 716V0H89V716H184ZM395 847L315 763H239L344 911H444L550 763H474L395 847Z" />
<glyph unicode="&#xcf;" glyph-name="Idieresis" horiz-adv-x="272" d="M236 788Q210 788 194 804T178 844Q178 868 194 884T236 901Q262 901 277 885T293 844Q293 821 278 805T236 788ZM41 788Q15 788 0 804T-15 844Q-15 868 0 884T41 901Q67 901 82 885T98 844Q98
821 83 805T41 788ZM184 716V0H89V716H184Z" />
<glyph unicode="&#xd0;" glyph-name="Eth" horiz-adv-x="746" d="M210 329V85H346Q402 85 448 102T527 154T578 245T596 376Q596 451 578 500T529 579T453 619T358 631H210V404H423V329H210ZM115 329H26V404H115V716H358Q430 716 492 700T599 644T671 541T698
382Q698 287 672 216T598 96T487 24T346 0H115V329Z" />
<glyph unicode="&#xd1;" glyph-name="Ntilde" horiz-adv-x="755" d="M178 601V0H89V716H216L576 115V716H666V0H538L178 601ZM222 783Q218 808 222 832T238 876T270 906T320 918Q346 918 366 910T404 891T435 872T465 863Q506 863 503 922H566Q570 897 566 873T550
830T518 800T468 788Q442 788 422 796T385 815T353 834T323 843Q302 843 293 829T286 783H222V783Z" />
<glyph unicode="&#xd2;" glyph-name="Ograve" horiz-adv-x="780" d="M390 -10Q318 -10 255 14T146 86T74 202T47 361Q47 451 73 519T146 633T255 702T390 726Q464 726 527 703T635 633T707 519T733 360Q733 271 707 202T636 86T527 15T390 -10ZM390 75Q442 75
486 90T562 139T613 227T632 358Q632 435 614 489T563 576T486 625T390 641Q339 641 295 626T218 577T167 489T148 358Q148 281 166 227T217 140T294 91T390 75ZM358 773L240 909H361L443 773H358Z" />
<glyph unicode="&#xd3;" glyph-name="Oacute" horiz-adv-x="780" d="M390 -10Q318 -10 255 14T146 86T74 202T47 361Q47 451 73 519T146 633T255 702T390 726Q464 726 527 703T635 633T707 519T733 360Q733 271 707 202T636 86T527 15T390 -10ZM390 75Q442 75
486 90T562 139T613 227T632 358Q632 435 614 489T563 576T486 625T390 641Q339 641 295 626T218 577T167 489T148 358Q148 281 166 227T217 140T294 91T390 75ZM422 909H543L425 773H340L422 909Z" />
<glyph unicode="&#xd4;" glyph-name="Ocircumflex" horiz-adv-x="780" d="M390 -10Q318 -10 255 14T146 86T74 202T47 361Q47 451 73 519T146 633T255 702T390 726Q464 726 527 703T635 633T707 519T733 360Q733 271 707 202T636 86T527 15T390 -10ZM390 75Q442
75 486 90T562 139T613 227T632 358Q632 435 614 489T563 576T486 625T390 641Q339 641 295 626T218 577T167 489T148 358Q148 281 166 227T217 140T294 91T390 75ZM391 847L311 763H235L340 911H440L546 763H470L391 847Z" />
<glyph unicode="&#xd5;" glyph-name="Otilde" horiz-adv-x="780" d="M390 -10Q318 -10 255 14T146 86T74 202T47 361Q47 451 73 519T146 633T255 702T390 726Q464 726 527 703T635 633T707 519T733 360Q733 271 707 202T636 86T527 15T390 -10ZM390 75Q442 75
486 90T562 139T613 227T632 358Q632 435 614 489T563 576T486 625T390 641Q339 641 295 626T218 577T167 489T148 358Q148 281 166 227T217 140T294 91T390 75ZM213 783Q209 808 213 832T229 876T261 906T311 918Q337 918 357 910T395 891T426 872T456 863Q497
863 494 922H557Q561 897 557 873T541 830T509 800T459 788Q433 788 413 796T376 815T344 834T314 843Q293 843 284 829T277 783H213V783Z" />
<glyph unicode="&#xd6;" glyph-name="Odieresis" horiz-adv-x="780" d="M390 -10Q318 -10 255 14T146 86T74 202T47 361Q47 451 73 519T146 633T255 702T390 726Q464 726 527 703T635 633T707 519T733 360Q733 271 707 202T636 86T527 15T390 -10ZM390 75Q442
75 486 90T562 139T613 227T632 358Q632 435 614 489T563 576T486 625T390 641Q339 641 295 626T218 577T167 489T148 358Q148 281 166 227T217 140T294 91T390 75ZM508 786Q482 786 467 802T451 842Q451 866 466 882T508 899Q534 899 549 883T565 842Q565 819
550 803T508 786ZM272 786Q246 786 231 802T216 842Q216 866 231 882T272 899Q298 899 313 883T329 842Q329 819 314 803T272 786Z" />
<glyph unicode="&#xd7;" glyph-name="multiply" horiz-adv-x="556" d="M533 288L356 111L304 164L481 341L308 514L360 567L534 394L707 567L759 514L586 341L763 164L710 111L533 288Z" />
<glyph unicode="&#xd8;" glyph-name="Oslash" horiz-adv-x="780" d="M390 -10Q318 -10 255 14L244 18L194 -70H104L176 58Q160 71 146 86Q100 133 74 202T47 361Q47 451 73 519T146 633T255 702T390 726Q464 726 527 702Q532 700 538 698L588 786H677L605 659Q621
647 635 633Q681 587 707 519T733 360Q733 271 707 202T636 86T527 15T390 -10ZM486 625Q442 641 390 641Q339 641 295 626T218 577T167 489T148 358Q148 281 166 227T217 139L220 136L495 622Q490 624 486 625ZM390 75Q442 75 486 90T562 139T613 227T632 358Q632
435 614 489T562 576L560 579L286 93Q290 92 294 90Q339 75 390 75Z" />
<glyph unicode="&#xd9;" glyph-name="Ugrave" horiz-adv-x="708" d="M72 716H167V245Q167 158 216 116T353 74Q394 74 429 84T491 116T531 170T546 245V716H636V248Q636 186 614 138T554 57T464 7T351 -10Q291 -10 240 6T152 54T93 133T72 244V716ZM336 773L218
909H339L421 773H336Z" />
<glyph unicode="&#xda;" glyph-name="Uacute" horiz-adv-x="708" d="M72 716H167V245Q167 158 216 116T353 74Q394 74 429 84T491 116T531 170T546 245V716H636V248Q636 186 614 138T554 57T464 7T351 -10Q291 -10 240 6T152 54T93 133T72 244V716ZM386 909H507L389
773H304L386 909Z" />
<glyph unicode="&#xdb;" glyph-name="Ucircumflex" horiz-adv-x="708" d="M72 716H167V245Q167 158 216 116T353 74Q394 74 429 84T491 116T531 170T546 245V716H636V248Q636 186 614 138T554 57T464 7T351 -10Q291 -10 240 6T152 54T93 133T72 244V716ZM355 847L275
763H199L304 911H404L510 763H434L355 847Z" />
<glyph unicode="&#xdc;" glyph-name="Udieresis" horiz-adv-x="708" d="M72 716H167V245Q167 158 216 116T353 74Q394 74 429 84T491 116T531 170T546 245V716H636V248Q636 186 614 138T554 57T464 7T351 -10Q291 -10 240 6T152 54T93 133T72 244V716ZM472 786Q446
786 431 802T415 842Q415 866 430 882T472 899Q498 899 513 883T529 842Q529 819 514 803T472 786ZM236 786Q210 786 195 802T180 842Q180 866 195 882T236 899Q262 899 277 883T293 842Q293 819 278 803T236 786Z" />
<glyph unicode="&#xdd;" glyph-name="Yacute" horiz-adv-x="611" d="M259 0V307L13 716H122L310 390L502 716H598L355 312V0H259ZM337 909H458L340 773H255L337 909Z" />
<glyph unicode="&#xde;" glyph-name="Thorn" horiz-adv-x="621" d="M184 485V230H310Q348 230 379 237T432 261T467 304T480 368Q480 429 439 457T319 485H184ZM184 145V0H89V716H184V570H319Q379 570 426 559T507 523T557 460T575 368Q575 311 556 269T501 200T418
159T310 145H184Z" />
<glyph unicode="&#xdf;" glyph-name="germandbls" horiz-adv-x="619" d="M401 -10Q310 -10 260 23L277 98Q301 82 329 73T396 64Q447 64 473 84T500 141Q500 160 492 173T471 195T440 212T403 226Q381 233 359 242T319 266T290 300T279 352Q279 381 289 400T315
432T349 456T383 479T409 509T420 553Q420 578 410 595T384 624T346 641T300 647Q232 647 199 606T165 485V0H77V485Q77 596 134 661T300 726Q348 726 386 714T450 679T491 625T506 555Q506 522 496 499T470 460T436 433T403 410T377 387T366 358Q366 344 373 335T392
318T419 305T452 293Q475 284 499 274T544 247T576 205T589 142Q589 98 573 69T531 22T470 -3T401 -10Z" />
<glyph unicode="&#xe0;" glyph-name="agrave" horiz-adv-x="529" d="M219 69Q247 69 270 77T312 98T345 126T370 156V242H302Q208 242 170 218T132 148Q132 113 153 91T219 69ZM375 86Q364 69 349 52T312 21T262 -1T200 -10Q130 -10 87 29T44 143Q44 312 294 312H370V351Q370
405 342 428T247 451Q196 451 157 438T88 408L67 481Q94 498 142 513T253 529Q353 529 405 488T458 362V84Q458 75 458 64T459 40T461 18T463 0H382Q380 14 378 39T375 84V86ZM485 588L372 746H484L560 588H485Z" />
<glyph unicode="&#xe1;" glyph-name="aacute" horiz-adv-x="529" d="M219 69Q247 69 270 77T312 98T345 126T370 156V242H302Q208 242 170 218T132 148Q132 113 153 91T219 69ZM375 86Q364 69 349 52T312 21T262 -1T200 -10Q130 -10 87 29T44 143Q44 312 294 312H370V351Q370
405 342 428T247 451Q196 451 157 438T88 408L67 481Q94 498 142 513T253 529Q353 529 405 488T458 362V84Q458 75 458 64T459 40T461 18T463 0H382Q380 14 378 39T375 84V86ZM294 746H406L293 588H217L294 746Z" />
<glyph unicode="&#xe2;" glyph-name="acircumflex" horiz-adv-x="529" d="M219 69Q247 69 270 77T312 98T345 126T370 156V242H302Q208 242 170 218T132 148Q132 113 153 91T219 69ZM375 86Q364 69 349 52T312 21T262 -1T200 -10Q130 -10 87 29T44 143Q44 312
294 312H370V351Q370 405 342 428T247 451Q196 451 157 438T88 408L67 481Q94 498 142 513T253 529Q353 529 405 488T458 362V84Q458 75 458 64T459 40T461 18T463 0H382Q380 14 378 39T375 84V86ZM258 672L178 588H102L207 736H307L413 588H337L258 672Z" />
<glyph unicode="&#xe3;" glyph-name="atilde" horiz-adv-x="529" d="M219 69Q247 69 270 77T312 98T345 126T370 156V242H302Q208 242 170 218T132 148Q132 113 153 91T219 69ZM375 86Q364 69 349 52T312 21T262 -1T200 -10Q130 -10 87 29T44 143Q44 312 294 312H370V351Q370
405 342 428T247 451Q196 451 157 438T88 408L67 481Q94 498 142 513T253 529Q353 529 405 488T458 362V84Q458 75 458 64T459 40T461 18T463 0H382Q380 14 378 39T375 84V86ZM93 598Q90 620 93 643T108 684T138 713T185 725Q209 725 228 718T263 701T292 685T320
677Q340 677 348 691T354 729H417Q420 706 417 684T402 643T371 614T325 602Q301 602 282 609T247 626T217 642T190 650Q171 650 163 636T156 598H93V598Z" />
<glyph unicode="&#xe4;" glyph-name="adieresis" horiz-adv-x="529" d="M219 69Q247 69 270 77T312 98T345 126T370 156V242H302Q208 242 170 218T132 148Q132 113 153 91T219 69ZM375 86Q364 69 349 52T312 21T262 -1T200 -10Q130 -10 87 29T44 143Q44 312 294
312H370V351Q370 405 342 428T247 451Q196 451 157 438T88 408L67 481Q94 498 142 513T253 529Q353 529 405 488T458 362V84Q458 75 458 64T459 40T461 18T463 0H382Q380 14 378 39T375 84V86ZM365 595Q339 595 324 611T308 650Q308 675 323 691T365 708Q391 708
406 692T422 650Q422 627 407 611T365 595ZM149 595Q124 595 108 611T92 650Q92 675 108 691T149 708Q175 708 190 692T206 650Q206 627 191 611T149 595Z" />
<glyph unicode="&#xe5;" glyph-name="aring" horiz-adv-x="529" d="M219 69Q247 69 270 77T312 98T345 126T370 156V242H302Q208 242 170 218T132 148Q132 113 153 91T219 69ZM375 86Q364 69 349 52T312 21T262 -1T200 -10Q130 -10 87 29T44 143Q44 312 294 312H370V351Q370
405 342 428T247 451Q196 451 157 438T88 408L67 481Q94 498 142 513T253 529Q353 529 405 488T458 362V84Q458 75 458 64T459 40T461 18T463 0H382Q380 14 378 39T375 84V86ZM257 571Q209 571 178 601T147 680Q147 728 178 758T257 789Q305 789 336 759T368 680Q368
656 360 636T336 602T301 579T257 571ZM257 626Q280 626 296 641T312 680Q312 704 296 719T257 735Q234 735 219 720T204 680Q204 656 219 641T257 626Z" />
<glyph unicode="&#xe6;" glyph-name="ae" horiz-adv-x="863" d="M612 451Q556 451 518 416T468 310H733Q735 346 727 372T702 416T663 442T612 451ZM221 69Q252 69 277 79T322 104T354 136T375 169V238H281Q203 238 168 216T132 148Q132 113 153 91T221 69ZM821
44Q810 36 794 27T754 10T700 -4T633 -10Q550 -10 496 21T413 109Q404 90 388 69T346 31T288 2T209 -10Q132 -10 88 29T44 143Q44 228 103 268T273 308H375V337Q375 394 346 422T247 451Q199 451 158 438T88 408L67 481Q99 501 146 515T253 529Q322 529 368 508T436
441Q465 484 509 506T612 529Q666 529 709 510T779 454T817 363T816 236H465Q476 69 641 69Q695 69 733 86T798 122L821 44Z" />
<glyph unicode="&#xe7;" glyph-name="ccedilla" horiz-adv-x="493" d="M195 8Q147 26 113 60T59 144T40 258Q40 321 59 371T114 457T196 510T300 529Q347 529 387 519T455 489L433 413Q408 427 376 439T301 451Q223 451 177 403T130 258Q130 167 176 118T300 69Q338
69 369 79T428 105L449 32Q421 12 385 1Q357 -7 321 -9L274 -176H170L244 -5Q218 -1 195 8Z" />
<glyph unicode="&#xe8;" glyph-name="egrave" horiz-adv-x="543" d="M285 451Q227 451 186 416T134 310H413Q415 346 406 372T380 416T339 442T285 451ZM492 44Q481 36 465 27T425 10T373 -4T307 -10Q176 -10 108 61T40 260Q40 323 58 373T110 457T188 510T287
529Q342 529 386 510T458 454T497 363T497 236H131Q136 152 182 111T312 69Q367 69 405 86T469 122L492 44ZM251 588L138 746H250L326 588H251Z" />
<glyph unicode="&#xe9;" glyph-name="eacute" horiz-adv-x="543" d="M285 451Q227 451 186 416T134 310H413Q415 346 406 372T380 416T339 442T285 451ZM492 44Q481 36 465 27T425 10T373 -4T307 -10Q176 -10 108 61T40 260Q40 323 58 373T110 457T188 510T287
529Q342 529 386 510T458 454T497 363T497 236H131Q136 152 182 111T312 69Q367 69 405 86T469 122L492 44ZM308 746H420L307 588H231L308 746Z" />
<glyph unicode="&#xea;" glyph-name="ecircumflex" horiz-adv-x="543" d="M285 451Q227 451 186 416T134 310H413Q415 346 406 372T380 416T339 442T285 451ZM492 44Q481 36 465 27T425 10T373 -4T307 -10Q176 -10 108 61T40 260Q40 323 58 373T110 457T188 510T287
529Q342 529 386 510T458 454T497 363T497 236H131Q136 152 182 111T312 69Q367 69 405 86T469 122L492 44ZM284 672L204 588H128L233 736H333L439 588H363L284 672Z" />
<glyph unicode="&#xeb;" glyph-name="edieresis" horiz-adv-x="543" d="M285 451Q227 451 186 416T134 310H413Q415 346 406 372T380 416T339 442T285 451ZM492 44Q481 36 465 27T425 10T373 -4T307 -10Q176 -10 108 61T40 260Q40 323 58 373T110 457T188 510T287
529Q342 529 386 510T458 454T497 363T497 236H131Q136 152 182 111T312 69Q367 69 405 86T469 122L492 44ZM391 595Q365 595 350 611T334 650Q334 675 349 691T391 708Q417 708 432 692T448 650Q448 627 433 611T391 595ZM175 595Q150 595 134 611T118 650Q118
675 134 691T175 708Q201 708 216 692T232 650Q232 627 217 611T175 595Z" />
<glyph unicode="&#xec;" glyph-name="igrave" horiz-adv-x="241" d="M165 519V0H77V519H165ZM82 588L-31 746H81L157 588H82Z" />
<glyph unicode="&#xed;" glyph-name="iacute" horiz-adv-x="241" d="M165 519V0H77V519H165ZM412 746H524L411 588H335L412 746Z" />
<glyph unicode="&#xee;" glyph-name="icircumflex" horiz-adv-x="241" d="M165 519V0H77V519H165ZM376 672L296 588H220L325 736H425L531 588H455L376 672Z" />
<glyph unicode="&#xef;" glyph-name="idieresis" horiz-adv-x="241" d="M208 595Q182 595 167 611T152 650Q152 675 167 691T208 708Q234 708 249 692T265 650Q265 627 250 611T208 595ZM33 595Q8 595 -8 611T-24 650Q-24 675 -8 691T33 708Q59 708 75 692T91
650Q91 627 75 611T33 595ZM165 519V0H77V519H165Z" />
<glyph unicode="&#xf0;" glyph-name="eth" horiz-adv-x="593" d="M290 -10Q237 -10 191 8T112 60T59 145T40 260Q40 324 59 373T110 457T185 508T276 525Q318 525 353 513T418 465Q400 505 375 539T317 603L149 549L131 606L261 648Q235 666 207 681T148 709V716H276Q294
708 312 699T349 675L454 709L471 652L403 630Q433 601 459 565T504 487T535 398T547 298Q547 223 528 166T475 69T393 10T290 -10ZM290 69Q325 69 355 81T406 120T440 191T453 298Q453 345 442 392Q415 425 379 438T290 451Q255 451 226 440T176 405T142 345T130
260Q130 211 142 175T175 116T226 81T290 69Z" />
<glyph unicode="&#xf1;" glyph-name="ntilde" horiz-adv-x="586" d="M323 451Q263 451 226 424T165 353V0H77V519H160L163 426H165Q186 471 231 500T345 529Q422 529 467 489T513 364V0H425V355Q425 409 398 430T323 451ZM133 598Q130 620 133 643T148 684T178
713T225 725Q249 725 268 718T303 701T332 685T360 677Q380 677 388 691T394 729H457Q460 706 457 684T442 643T411 614T365 602Q341 602 322 609T287 626T257 642T230 650Q211 650 203 636T196 598H133V598Z" />
<glyph unicode="&#xf2;" glyph-name="ograve" horiz-adv-x="582" d="M290 -10Q237 -10 191 8T112 60T59 145T40 260Q40 324 59 374T111 459T191 511T290 529Q344 529 390 511T469 459T522 375T542 260Q542 195 523 145T470 61T390 8T290 -10ZM290 69Q325 69 355
80T406 115T440 175T453 260Q453 309 441 345T407 404T355 439T290 451Q255 451 226 440T176 405T142 345T130 260Q130 211 142 175T175 116T226 81T290 69ZM255 588L142 746H254L330 588H255Z" />
<glyph unicode="&#xf3;" glyph-name="oacute" horiz-adv-x="582" d="M290 -10Q237 -10 191 8T112 60T59 145T40 260Q40 324 59 374T111 459T191 511T290 529Q344 529 390 511T469 459T522 375T542 260Q542 195 523 145T470 61T390 8T290 -10ZM290 69Q325 69 355
80T406 115T440 175T453 260Q453 309 441 345T407 404T355 439T290 451Q255 451 226 440T176 405T142 345T130 260Q130 211 142 175T175 116T226 81T290 69ZM324 746H436L323 588H247L324 746Z" />
<glyph unicode="&#xf4;" glyph-name="ocircumflex" horiz-adv-x="582" d="M290 -10Q237 -10 191 8T112 60T59 145T40 260Q40 324 59 374T111 459T191 511T290 529Q344 529 390 511T469 459T522 375T542 260Q542 195 523 145T470 61T390 8T290 -10ZM290 69Q325
69 355 80T406 115T440 175T453 260Q453 309 441 345T407 404T355 439T290 451Q255 451 226 440T176 405T142 345T130 260Q130 211 142 175T175 116T226 81T290 69ZM288 672L208 588H132L237 736H337L443 588H367L288 672Z" />
<glyph unicode="&#xf5;" glyph-name="otilde" horiz-adv-x="582" d="M290 -10Q237 -10 191 8T112 60T59 145T40 260Q40 324 59 374T111 459T191 511T290 529Q344 529 390 511T469 459T522 375T542 260Q542 195 523 145T470 61T390 8T290 -10ZM290 69Q325 69 355
80T406 115T440 175T453 260Q453 309 441 345T407 404T355 439T290 451Q255 451 226 440T176 405T142 345T130 260Q130 211 142 175T175 116T226 81T290 69ZM123 598Q120 620 123 643T138 684T168 713T215 725Q239 725 258 718T293 701T322 685T350 677Q370 677
378 691T384 729H447Q450 706 447 684T432 643T401 614T355 602Q331 602 312 609T277 626T247 642T220 650Q201 650 193 636T186 598H123V598Z" />
<glyph unicode="&#xf6;" glyph-name="odieresis" horiz-adv-x="582" d="M290 -10Q237 -10 191 8T112 60T59 145T40 260Q40 324 59 374T111 459T191 511T290 529Q344 529 390 511T469 459T522 375T542 260Q542 195 523 145T470 61T390 8T290 -10ZM290 69Q325 69
355 80T406 115T440 175T453 260Q453 309 441 345T407 404T355 439T290 451Q255 451 226 440T176 405T142 345T130 260Q130 211 142 175T175 116T226 81T290 69ZM395 595Q369 595 354 611T338 650Q338 675 353 691T395 708Q421 708 436 692T452 650Q452 627 437
611T395 595ZM179 595Q154 595 138 611T122 650Q122 675 138 691T179 708Q205 708 220 692T236 650Q236 627 221 611T179 595Z" />
<glyph unicode="&#xf7;" glyph-name="divide" horiz-adv-x="556" d="M297 65Q269 65 251 83T232 128Q232 156 250 174T297 192Q325 192 343 174T361 128Q361 102 343 84T297 65ZM297 482Q269 482 251 500T232 545Q232 573 250 591T297 609Q325 609 343 591T361
545Q361 519 343 501T297 482ZM56 302V372H538V302H56Z" />
<glyph unicode="&#xf8;" glyph-name="oslash" horiz-adv-x="582" d="M130 260Q130 208 143 171T180 111L339 445Q315 451 290 451Q255 451 226 440T176 405T142 345T130 260ZM290 69Q325 69 355 80T406 115T440 175T453 260Q453 311 440 348T403 408L244 75Q265
69 290 69ZM290 -10Q246 -10 209 2L170 -80H89L143 34Q95 67 68 124T40 260Q40 324 59 374T111 459T191 511T290 529Q334 529 373 517L412 599H494L439 485Q487 451 514 395T542 260Q542 195 523 145T470 61T390 8T290 -10Z" />
<glyph unicode="&#xf9;" glyph-name="ugrave" horiz-adv-x="575" d="M410 93Q389 49 346 20T232 -10Q160 -10 116 30T71 156V519H160V156Q160 130 167 114T188 87T218 73T257 69Q315 69 350 95T410 166V519H498V0H421L412 93H410V93ZM261 588L148 746H260L336 588H261Z" />
<glyph unicode="&#xfa;" glyph-name="uacute" horiz-adv-x="575" d="M410 93Q389 49 346 20T232 -10Q160 -10 116 30T71 156V519H160V156Q160 130 167 114T188 87T218 73T257 69Q315 69 350 95T410 166V519H498V0H421L412 93H410V93ZM319 746H431L318 588H242L319 746Z" />
<glyph unicode="&#xfb;" glyph-name="ucircumflex" horiz-adv-x="575" d="M410 93Q389 49 346 20T232 -10Q160 -10 116 30T71 156V519H160V156Q160 130 167 114T188 87T218 73T257 69Q315 69 350 95T410 166V519H498V0H421L412 93H410V93ZM287 672L207 588H131L236
736H336L442 588H366L287 672Z" />
<glyph unicode="&#xfc;" glyph-name="udieresis" horiz-adv-x="575" d="M410 93Q389 49 346 20T232 -10Q160 -10 116 30T71 156V519H160V156Q160 130 167 114T188 87T218 73T257 69Q315 69 350 95T410 166V519H498V0H421L412 93H410V93ZM394 595Q368 595 353 611T337
650Q337 675 352 691T394 708Q420 708 435 692T451 650Q451 627 436 611T394 595ZM178 595Q153 595 137 611T121 650Q121 675 137 691T178 708Q204 708 219 692T235 650Q235 627 220 611T178 595Z" />
<glyph unicode="&#xfd;" glyph-name="yacute" horiz-adv-x="521" d="M111 -187Q94 -187 80 -185T56 -179L67 -102Q72 -104 82 -106T109 -108Q146 -108 170 -91T215 -35L15 519H110L263 79L419 519H505L322 6Q288 -88 240 -137T111 -187ZM314 746H426L313 588H237L314
746Z" />
<glyph unicode="&#xfe;" glyph-name="thorn" horiz-adv-x="610" d="M325 69Q394 69 436 116T479 260Q479 354 437 402T325 451Q291 451 262 439T211 404T177 344T164 260Q164 212 176 176T210 116T261 81T325 69ZM338 -10Q278 -10 235 18T165 95V-177H77V716H165V429Q191
476 233 502T337 529Q384 529 426 513T501 463T551 379T570 260Q570 191 551 141T500 57T426 7T338 -10Z" />
<glyph unicode="&#xff;" glyph-name="ydieresis" horiz-adv-x="521" d="M111 -187Q94 -187 80 -185T56 -179L67 -102Q72 -104 82 -106T109 -108Q146 -108 170 -91T215 -35L15 519H110L263 79L419 519H505L322 6Q288 -88 240 -137T111 -187ZM386 595Q360 595 345
611T329 650Q329 675 344 691T386 708Q412 708 427 692T443 650Q443 627 428 611T386 595ZM170 595Q145 595 129 611T113 650Q113 675 129 691T170 708Q196 708 211 692T227 650Q227 627 212 611T170 595Z" />
<glyph unicode="&#x100;" glyph-name="Amacron" horiz-adv-x="661" d="M324 641L208 288H441L324 641ZM468 205H181L113 0H25L260 716H400L636 0H536L468 205ZM179 878H490V808H179V878Z" />
<glyph unicode="&#x101;" glyph-name="amacron" horiz-adv-x="529" d="M219 69Q247 69 270 77T312 98T345 126T370 156V242H302Q208 242 170 218T132 148Q132 113 153 91T219 69ZM375 86Q364 69 349 52T312 21T262 -1T200 -10Q130 -10 87 29T44 143Q44 312 294
312H370V351Q370 405 342 428T247 451Q196 451 157 438T88 408L67 481Q94 498 142 513T253 529Q353 529 405 488T458 362V84Q458 75 458 64T459 40T461 18T463 0H382Q380 14 378 39T375 84V86ZM114 687H403V616H114V687Z" />
<glyph unicode="&#x102;" glyph-name="Abreve" horiz-adv-x="661" d="M324 641L208 288H441L324 641ZM468 205H181L113 0H25L260 716H400L636 0H536L468 205ZM331 766Q291 766 262 778T213 810T184 856T173 911H252Q255 837 331 837Q403 837 409 911H488Q486 882
476 856T447 810T399 778T331 766Z" />
<glyph unicode="&#x103;" glyph-name="abreve" horiz-adv-x="529" d="M219 69Q247 69 270 77T312 98T345 126T370 156V242H302Q208 242 170 218T132 148Q132 113 153 91T219 69ZM375 86Q364 69 349 52T312 21T262 -1T200 -10Q130 -10 87 29T44 143Q44 312 294
312H370V351Q370 405 342 428T247 451Q196 451 157 438T88 408L67 481Q94 498 142 513T253 529Q353 529 405 488T458 362V84Q458 75 458 64T459 40T461 18T463 0H382Q380 14 378 39T375 84V86ZM259 588Q221 588 194 599T149 629T122 673T111 729H191Q193 691 210
675T259 658Q292 658 308 674T326 729H406Q405 699 396 674T369 629T324 599T259 588Z" />
<glyph unicode="&#x104;" glyph-name="Aogonek" horiz-adv-x="661" d="M592 -188Q535 -188 505 -164T474 -100Q474 -63 494 -41T538 -6L468 205H181L113 0H25L260 716H400L635 2Q606 -15 583 -36T559 -81Q559 -98 569 -108T603 -119Q617 -119 627 -117T649 -110V-177Q642
-181 627 -184T592 -188ZM324 641L208 288H441L324 641Z" />
<glyph unicode="&#x105;" glyph-name="aogonek" horiz-adv-x="529" d="M424 -188Q367 -188 337 -164T306 -100Q306 -79 313 -63T331 -34T355 -14T382 0Q380 14 378 39T375 84V86Q364 69 349 52T312 21T262 -1T200 -10Q130 -10 87 29T44 143Q44 312 294 312H370V351Q370
405 342 428T247 451Q196 451 157 438T88 408L67 481Q94 498 142 513T253 529Q353 529 405 488T458 362V84Q458 75 458 64T459 40T461 18T463 0Q450 -7 438 -16T415 -35T398 -57T391 -81Q391 -98 401 -108T435 -119Q449 -119 459 -117T481 -110L493 -173Q483 -178
465 -183T424 -188ZM219 69Q247 69 270 77T312 98T345 126T370 156V242H302Q208 242 170 218T132 148Q132 113 153 91T219 69Z" />
<glyph unicode="&#x106;" glyph-name="Cacute" horiz-adv-x="654" d="M397 -10Q322 -10 258 15T147 87T74 203T47 358Q47 445 71 513T141 628T251 701T395 726Q465 726 517 710T603 674L588 582Q549 610 500 625T394 641Q278 641 214 571T149 358Q149 216 218
146T405 75Q456 75 497 90T577 130L603 51Q574 28 522 9T397 -10ZM399 909H520L402 773H317L399 909Z" />
<glyph unicode="&#x107;" glyph-name="cacute" horiz-adv-x="493" d="M300 -10Q243 -10 195 8T113 60T59 144T40 258Q40 321 59 371T114 457T196 510T300 529Q347 529 387 519T455 489L433 413Q408 427 376 439T301 451Q223 451 177 403T130 258Q130 167 176 118T300
69Q338 69 369 79T428 105L449 32Q421 12 385 1T300 -10ZM314 746H426L313 588H237L314 746Z" />
<glyph unicode="&#x108;" glyph-name="Ccircumflex" horiz-adv-x="654" d="M397 -10Q322 -10 258 15T147 87T74 203T47 358Q47 445 71 513T141 628T251 701T395 726Q465 726 517 710T603 674L588 582Q549 610 500 625T394 641Q278 641 214 571T149 358Q149 216
218 146T405 75Q456 75 497 90T577 130L603 51Q574 28 522 9T397 -10ZM372 847L292 763H216L321 911H421L527 763H451L372 847Z" />
<glyph unicode="&#x109;" glyph-name="ccircumflex" horiz-adv-x="493" d="M300 -10Q243 -10 195 8T113 60T59 144T40 258Q40 321 59 371T114 457T196 510T300 529Q347 529 387 519T455 489L433 413Q408 427 376 439T301 451Q223 451 177 403T130 258Q130 167
176 118T300 69Q338 69 369 79T428 105L449 32Q421 12 385 1T300 -10ZM283 672L203 588H127L232 736H332L438 588H362L283 672Z" />
<glyph unicode="&#x10a;" glyph-name="Cdotaccent" horiz-adv-x="654" d="M397 -10Q322 -10 258 15T147 87T74 203T47 358Q47 445 71 513T141 628T251 701T395 726Q465 726 517 710T603 674L588 582Q549 610 500 625T394 641Q278 641 214 571T149 358Q149 216
218 146T405 75Q456 75 497 90T577 130L603 51Q574 28 522 9T397 -10ZM371 786Q345 786 330 802T314 842Q314 866 329 882T371 899Q397 899 413 883T429 842Q429 819 413 803T371 786Z" />
<glyph unicode="&#x10b;" glyph-name="cdotaccent" horiz-adv-x="493" d="M300 -10Q243 -10 195 8T113 60T59 144T40 258Q40 321 59 371T114 457T196 510T300 529Q347 529 387 519T455 489L433 413Q408 427 376 439T301 451Q223 451 177 403T130 258Q130 167 176
118T300 69Q338 69 369 79T428 105L449 32Q421 12 385 1T300 -10ZM283 595Q257 595 242 611T226 650Q226 675 241 691T283 708Q309 708 325 692T341 650Q341 627 325 611T283 595Z" />
<glyph unicode="&#x10c;" glyph-name="Ccaron" horiz-adv-x="654" d="M397 -10Q322 -10 258 15T147 87T74 203T47 358Q47 445 71 513T141 628T251 701T395 726Q465 726 517 710T603 674L588 582Q549 610 500 625T394 641Q278 641 214 571T149 358Q149 216 218
146T405 75Q456 75 497 90T577 130L603 51Q574 28 522 9T397 -10ZM320 763L215 911H291L371 827L450 911H526L420 763H320Z" />
<glyph unicode="&#x10d;" glyph-name="ccaron" horiz-adv-x="493" d="M300 -10Q243 -10 195 8T113 60T59 144T40 258Q40 321 59 371T114 457T196 510T300 529Q347 529 387 519T455 489L433 413Q408 427 376 439T301 451Q223 451 177 403T130 258Q130 167 176 118T300
69Q338 69 369 79T428 105L449 32Q421 12 385 1T300 -10ZM126 736H202L282 652L361 736H437L331 588H231L126 736Z" />
<glyph unicode="&#x10e;" glyph-name="Dcaron" horiz-adv-x="719" d="M184 631V85H320Q375 85 420 102T499 154T550 245T568 376Q568 451 550 500T501 579T425 619T330 631H184ZM89 716H330Q402 716 464 700T572 644T644 541T670 382Q670 287 644 216T571 96T460
24T320 0H89V716ZM276 763L171 911H247L327 827L406 911H482L376 763H276Z" />
<glyph unicode="&#x10f;" glyph-name="dcaron" horiz-adv-x="612" d="M289 69Q322 69 351 80T401 116T435 176T448 260Q448 308 436 344T402 404T351 439T289 451Q220 451 176 403T132 260Q132 164 176 117T289 69ZM451 101Q427 51 384 21T275 -10Q228 -10 186
6T112 56T61 140T42 260Q42 328 61 378T112 462T186 512T276 529Q335 529 378 505T447 435V716H535V0H458L451 101ZM593 559L613 716H714L654 559H593Z" />
<glyph unicode="&#x110;" glyph-name="Dcroat" horiz-adv-x="746" d="M210 329V85H346Q402 85 448 102T527 154T578 245T596 376Q596 451 578 500T529 579T453 619T358 631H210V404H423V329H210ZM115 329H26V404H115V716H358Q430 716 492 700T599 644T671 541T698
382Q698 287 672 216T598 96T487 24T346 0H115V329Z" />
<glyph unicode="&#x111;" glyph-name="dcroat" horiz-adv-x="621" d="M451 101Q427 51 384 21T275 -10Q228 -10 186 6T112 56T61 140T42 260Q42 328 61 378T112 462T186 512T276 529Q335 529 378 505T447 435V576H295V641H447V716H535V641H613V576H535V0H458L451
101ZM289 69Q322 69 351 80T401 116T435 176T448 260Q448 308 436 344T402 404T351 439T289 451Q220 451 176 403T132 260Q132 164 176 117T289 69Z" />
<glyph unicode="&#x112;" glyph-name="Emacron" horiz-adv-x="577" d="M89 716H502V631H184V414H460V329H184V85H507V0H89V716ZM142 878H453V808H142V878Z" />
<glyph unicode="&#x113;" glyph-name="emacron" horiz-adv-x="543" d="M285 451Q227 451 186 416T134 310H413Q415 346 406 372T380 416T339 442T285 451ZM492 44Q481 36 465 27T425 10T373 -4T307 -10Q176 -10 108 61T40 260Q40 323 58 373T110 457T188 510T287
529Q342 529 386 510T458 454T497 363T497 236H131Q136 152 182 111T312 69Q367 69 405 86T469 122L492 44ZM140 687H429V616H140V687Z" />
<glyph unicode="&#x114;" glyph-name="Ebreve" horiz-adv-x="577" d="M89 716H502V631H184V414H460V329H184V85H507V0H89V716ZM303 766Q263 766 234 778T185 810T156 856T145 911H224Q227 837 303 837Q375 837 381 911H460Q458 882 448 856T419 810T371 778T303 766Z" />
<glyph unicode="&#x115;" glyph-name="ebreve" horiz-adv-x="543" d="M285 451Q227 451 186 416T134 310H413Q415 346 406 372T380 416T339 442T285 451ZM492 44Q481 36 465 27T425 10T373 -4T307 -10Q176 -10 108 61T40 260Q40 323 58 373T110 457T188 510T287
529Q342 529 386 510T458 454T497 363T497 236H131Q136 152 182 111T312 69Q367 69 405 86T469 122L492 44ZM285 588Q247 588 220 599T175 629T148 673T137 729H217Q219 691 236 675T285 658Q318 658 334 674T352 729H432Q431 699 422 674T395 629T350 599T285
588Z" />
<glyph unicode="&#x116;" glyph-name="Edotaccent" horiz-adv-x="577" d="M89 716H502V631H184V414H460V329H184V85H507V0H89V716ZM303 786Q277 786 262 802T246 842Q246 866 261 882T303 899Q329 899 345 883T361 842Q361 819 345 803T303 786Z" />
<glyph unicode="&#x117;" glyph-name="edotaccent" horiz-adv-x="543" d="M285 451Q227 451 186 416T134 310H413Q415 346 406 372T380 416T339 442T285 451ZM492 44Q481 36 465 27T425 10T373 -4T307 -10Q176 -10 108 61T40 260Q40 323 58 373T110 457T188 510T287
529Q342 529 386 510T458 454T497 363T497 236H131Q136 152 182 111T312 69Q367 69 405 86T469 122L492 44ZM284 595Q258 595 243 611T227 650Q227 675 242 691T284 708Q310 708 326 692T342 650Q342 627 326 611T284 595Z" />
<glyph unicode="&#x118;" glyph-name="Eogonek" horiz-adv-x="577" d="M89 716H502V631H184V414H460V329H184V85H507V0H89V716ZM431 -188Q374 -188 344 -164T313 -100Q313 -79 320 -63T338 -34T363 -14T391 0H470Q457 -7 445 -16T422 -35T405 -57T398 -81Q398
-98 408 -108T442 -119Q455 -119 466 -117T488 -110L500 -173Q490 -178 472 -183T431 -188Z" />
<glyph unicode="&#x119;" glyph-name="eogonek" horiz-adv-x="543" d="M339 -81Q339 -98 349 -108T383 -119Q397 -119 408 -117T430 -110L441 -173Q432 -178 414 -183T372 -188Q315 -188 285 -164T255 -100Q255 -65 272 -44T312 -10H307Q176 -10 108 61T40 260Q40
323 58 373T110 457T188 510T287 529Q342 529 386 510T458 454T497 363T497 236H131Q136 152 181 111T315 69Q369 69 406 86T469 122L492 44Q476 34 459 25T421 4Q388 -13 364 -34T339 -81ZM285 451Q226 451 186 416T134 310H413Q415 346 406 372T380 416T339 442T285
451Z" />
<glyph unicode="&#x11a;" glyph-name="Ecaron" horiz-adv-x="577" d="M89 716H502V631H184V414H460V329H184V85H507V0H89V716ZM257 763L152 911H228L308 827L387 911H463L357 763H257Z" />
<glyph unicode="&#x11b;" glyph-name="ecaron" horiz-adv-x="543" d="M285 451Q227 451 186 416T134 310H413Q415 346 406 372T380 416T339 442T285 451ZM492 44Q481 36 465 27T425 10T373 -4T307 -10Q176 -10 108 61T40 260Q40 323 58 373T110 457T188 510T287
529Q342 529 386 510T458 454T497 363T497 236H131Q136 152 182 111T312 69Q367 69 405 86T469 122L492 44ZM127 736H203L283 652L362 736H438L332 588H232L127 736Z" />
<glyph unicode="&#x11c;" glyph-name="Gcircumflex" horiz-adv-x="749" d="M695 281Q695 218 677 165T620 73T525 12T389 -10Q313 -10 250 16T142 91T72 207T47 358Q47 441 71 509T141 625T257 699T416 726Q494 726 551 708T647 667L632 575Q587 607 532 624T413
641Q345 641 296 622T214 567T165 478T149 358Q149 224 212 150T389 75Q445 75 485 89T550 129T586 190T598 268V288H367V373H695V281V281ZM392 847L312 763H236L341 911H441L547 763H471L392 847Z" />
<glyph unicode="&#x11d;" glyph-name="gcircumflex" horiz-adv-x="604" d="M288 100Q320 100 347 110T395 143T427 197T439 274Q439 319 428 352T396 407T348 440T287 451Q254 451 226 440T176 407T143 352T131 274Q131 230 143 198T176 144T225 111T288 100ZM259
-179Q186 -179 140 -167T72 -142L90 -61Q115 -74 155 -87T260 -100Q357 -100 397 -61T438 48V123Q415 77 374 49T271 21Q225 21 184 37T111 84T61 163T42 274Q42 338 60 385T110 465T184 513T273 529Q335 529 377 501T444 425L445 436Q445 454 447 479T452 519H531Q529
505 528 479T526 436V49Q526 -1 511 -43T464 -115T381 -162T259 -179ZM280 672L200 588H124L229 736H329L435 588H359L280 672Z" />
<glyph unicode="&#x11e;" glyph-name="Gbreve" horiz-adv-x="749" d="M695 281Q695 218 677 165T620 73T525 12T389 -10Q313 -10 250 16T142 91T72 207T47 358Q47 441 71 509T141 625T257 699T416 726Q494 726 551 708T647 667L632 575Q587 607 532 624T413 641Q345
641 296 622T214 567T165 478T149 358Q149 224 212 150T389 75Q445 75 485 89T550 129T586 190T598 268V288H367V373H695V281V281ZM391 766Q351 766 322 778T273 810T244 856T233 911H312Q315 837 391 837Q463 837 469 911H548Q546 882 536 856T507 810T459 778T391
766Z" />
<glyph unicode="&#x11f;" glyph-name="gbreve" horiz-adv-x="604" d="M288 100Q320 100 347 110T395 143T427 197T439 274Q439 319 428 352T396 407T348 440T287 451Q254 451 226 440T176 407T143 352T131 274Q131 230 143 198T176 144T225 111T288 100ZM259 -179Q186
-179 140 -167T72 -142L90 -61Q115 -74 155 -87T260 -100Q357 -100 397 -61T438 48V123Q415 77 374 49T271 21Q225 21 184 37T111 84T61 163T42 274Q42 338 60 385T110 465T184 513T273 529Q335 529 377 501T444 425L445 436Q445 454 447 479T452 519H531Q529 505
528 479T526 436V49Q526 -1 511 -43T464 -115T381 -162T259 -179ZM282 588Q244 588 217 599T172 629T145 673T134 729H214Q216 691 233 675T282 658Q315 658 331 674T349 729H429Q428 699 419 674T392 629T347 599T282 588Z" />
<glyph unicode="&#x120;" glyph-name="Gdotaccent" horiz-adv-x="749" d="M695 281Q695 218 677 165T620 73T525 12T389 -10Q313 -10 250 16T142 91T72 207T47 358Q47 441 71 509T141 625T257 699T416 726Q494 726 551 708T647 667L632 575Q587 607 532 624T413
641Q345 641 296 622T214 567T165 478T149 358Q149 224 212 150T389 75Q445 75 485 89T550 129T586 190T598 268V288H367V373H695V281V281ZM391 786Q365 786 350 802T334 842Q334 866 349 882T391 899Q417 899 433 883T449 842Q449 819 433 803T391 786Z" />
<glyph unicode="&#x121;" glyph-name="gdotaccent" horiz-adv-x="604" d="M288 100Q320 100 347 110T395 143T427 197T439 274Q439 319 428 352T396 407T348 440T287 451Q254 451 226 440T176 407T143 352T131 274Q131 230 143 198T176 144T225 111T288 100ZM259
-179Q186 -179 140 -167T72 -142L90 -61Q115 -74 155 -87T260 -100Q357 -100 397 -61T438 48V123Q415 77 374 49T271 21Q225 21 184 37T111 84T61 163T42 274Q42 338 60 385T110 465T184 513T273 529Q335 529 377 501T444 425L445 436Q445 454 447 479T452 519H531Q529
505 528 479T526 436V49Q526 -1 511 -43T464 -115T381 -162T259 -179ZM281 595Q255 595 240 611T224 650Q224 675 239 691T281 708Q307 708 323 692T339 650Q339 627 323 611T281 595Z" />
<glyph unicode="&#x122;" glyph-name="uni0122" horiz-adv-x="749" d="M695 281Q695 218 677 165T620 73T525 12T389 -10Q313 -10 250 16T142 91T72 207T47 358Q47 441 71 509T141 625T257 699T416 726Q494 726 551 708T647 667L632 575Q587 607 532 624T413 641Q345
641 296 622T214 567T165 478T149 358Q149 224 212 150T389 75Q445 75 485 89T550 129T586 190T598 268V288H367V373H695V281V281ZM316 -228Q332 -213 344 -195T370 -154Q351 -151 340 -137T328 -103Q328 -81 343 -66T381 -51Q404 -51 421 -66T438 -114Q438 -133
433 -149T418 -180T399 -206T378 -228H316Z" />
<glyph unicode="&#x123;" glyph-name="uni0123" horiz-adv-x="604" d="M288 100Q320 100 347 110T395 143T427 197T439 274Q439 319 428 352T396 407T348 440T287 451Q254 451 226 440T176 407T143 352T131 274Q131 230 143 198T176 144T225 111T288 100ZM259
-179Q186 -179 140 -167T72 -142L90 -61Q115 -74 155 -87T260 -100Q357 -100 397 -61T438 48V123Q415 77 374 49T271 21Q225 21 184 37T111 84T61 163T42 274Q42 338 60 385T110 465T184 513T273 529Q335 529 377 501T444 425L445 436Q445 454 447 479T452 519H531Q529
505 528 479T526 436V49Q526 -1 511 -43T464 -115T381 -162T259 -179ZM282 595Q259 595 242 611T225 659Q225 678 230 694T245 725T264 751T285 773H347Q316 743 293 699Q312 696 323 682T335 648Q335 626 320 611T282 595Z" />
<glyph unicode="&#x124;" glyph-name="Hcircumflex" horiz-adv-x="735" d="M552 313H184V0H89V716H184V398H552V716H646V0H552V313ZM368 847L288 763H212L317 911H417L523 763H447L368 847Z" />
<glyph unicode="&#x125;" glyph-name="hcircumflex" horiz-adv-x="586" d="M323 451Q263 451 226 424T165 353V0H77V716H165V519L163 426H165Q186 469 231 499T345 529Q422 529 467 489T513 364V0H425V355Q425 409 398 430T323 451ZM303 847L223 763H147L252 911H352L458
763H382L303 847Z" />
<glyph unicode="&#x126;" glyph-name="Hbar" horiz-adv-x="735" d="M552 313H184V0H89V511H-11V586H89V716H184V586H552V716H646V586H746V511H646V0H552V313ZM552 398V511H184V398H552Z" />
<glyph unicode="&#x127;" glyph-name="hbar" horiz-adv-x="596" d="M333 451Q273 451 236 424T175 353V0H87V576H7V641H87V716H175V641H326V576H175V519L173 426H175Q196 469 241 499T355 529Q432 529 477 489T523 364V0H435V355Q435 409 408 430T333 451Z" />
<glyph unicode="&#x128;" glyph-name="Itilde" horiz-adv-x="272" d="M184 716V0H89V716H184ZM217 783Q213 808 217 832T233 876T265 906T315 918Q341 918 361 910T399 891T430 872T460 863Q501 863 498 922H561Q565 897 561 873T545 830T513 800T463 788Q437
788 417 796T380 815T348 834T318 843Q297 843 288 829T281 783H217V783Z" />
<glyph unicode="&#x129;" glyph-name="itilde" horiz-adv-x="241" d="M165 519V0H77V519H165ZM211 598Q208 620 211 643T226 684T256 713T303 725Q327 725 346 718T381 701T410 685T438 677Q458 677 466 691T472 729H535Q538 706 535 684T520 643T489 614T443
602Q419 602 400 609T365 626T335 642T308 650Q289 650 281 636T274 598H211V598Z" />
<glyph unicode="&#x12a;" glyph-name="Imacron" horiz-adv-x="272" d="M184 716V0H89V716H184ZM236 878H547V808H236V878Z" />
<glyph unicode="&#x12b;" glyph-name="imacron" horiz-adv-x="241" d="M6 687H234V616H6V687ZM165 519V0H77V519H165Z" />
<glyph unicode="&#x12c;" glyph-name="Ibreve" horiz-adv-x="272" d="M184 716V0H89V716H184ZM394 766Q354 766 325 778T276 810T247 856T236 911H315Q318 837 394 837Q466 837 472 911H551Q549 882 539 856T510 810T462 778T394 766Z" />
<glyph unicode="&#x12d;" glyph-name="ibreve" horiz-adv-x="241" d="M165 519V0H77V519H165ZM377 588Q339 588 312 599T267 629T240 673T229 729H309Q311 691 328 675T377 658Q410 658 426 674T444 729H524Q523 699 514 674T487 629T442 599T377 588Z" />
<glyph unicode="&#x12e;" glyph-name="Iogonek" horiz-adv-x="272" d="M141 -188Q84 -188 54 -164T24 -100Q24 -63 44 -41T89 -6V716H184V1Q157 -16 133 -36T108 -81Q108 -98 119 -108T153 -119Q166 -119 177 -117T199 -110L210 -173Q201 -178 183 -183T141 -188Z" />
<glyph unicode="&#x12f;" glyph-name="iogonek" horiz-adv-x="241" d="M122 595Q96 595 80 611T63 652Q63 675 79 692T122 710Q148 710 163 693T178 652Q178 628 163 612T122 595ZM126 -188Q69 -188 39 -164T8 -100Q8 -61 29 -39T77 -4V519H165V0Q152 -7 140 -16T117
-35T100 -57T93 -81Q93 -98 103 -108T137 -119Q151 -119 162 -117T184 -110L195 -173Q185 -178 167 -183T126 -188Z" />
<glyph unicode="&#x130;" glyph-name="Idotaccent" horiz-adv-x="272" d="M184 716V0H89V716H184ZM394 786Q368 786 353 802T337 842Q337 866 352 882T394 899Q420 899 436 883T452 842Q452 819 436 803T394 786Z" />
<glyph unicode="&#x131;" glyph-name="dotlessi" horiz-adv-x="241" d="M165 519V0H77V519H165Z" />
<glyph unicode="&#x132;" glyph-name="IJ" horiz-adv-x="603" d="M184 716V0H89V716H184ZM518 716V133Q518 106 508 80T478 34T426 2T351 -10Q324 -10 298 -6T249 7V88Q269 81 289 78T329 75Q378 75 400 95T423 161V716H518Z" />
<glyph unicode="&#x133;" glyph-name="ij" horiz-adv-x="471" d="M122 595Q96 595 80 611T63 652Q63 675 79 692T122 710Q148 710 163 693T178 652Q178 628 163 612T122 595ZM165 519V0H77V519H165ZM354 595Q328 595 312 611T296 652Q296 675 312 692T354 710Q380
710 396 693T412 652Q412 628 396 612T354 595ZM206 -107Q237 -104 257 -95T290 -71T306 -38T311 1V519H398V7Q398 -74 357 -125T220 -186L206 -107Z" />
<glyph unicode="&#x134;" glyph-name="Jcircumflex" horiz-adv-x="383" d="M298 716V133Q298 106 288 80T258 34T206 2T131 -10Q105 -10 79 -6T30 7L42 92Q53 87 65 83Q76 80 89 78T119 75Q203 75 203 161V716H298ZM251 847L171 763H95L200 911H300L406 763H330L251 847Z" />
<glyph unicode="&#x135;" glyph-name="jcircumflex" horiz-adv-x="249" d="M-16 -107Q15 -104 35 -95T68 -71T84 -38T89 1V519H176V7Q176 -74 135 -125T-2 -186L-16 -107ZM384 672L304 588H228L333 736H433L539 588H463L384 672Z" />
<glyph unicode="&#x136;" glyph-name="uni0136" horiz-adv-x="641" d="M247 312H184V0H89V716H184V397H243L499 716H605L322 364L615 0H499L247 312ZM259 -228Q275 -213 287 -195T313 -154Q294 -151 283 -137T271 -103Q271 -81 286 -66T324 -51Q347 -51 364 -66T381
-114Q381 -133 376 -149T361 -180T342 -206T321 -228H259Z" />
<glyph unicode="&#x137;" glyph-name="uni0137" horiz-adv-x="519" d="M211 221H165V0H77V716H165V296H215L397 519H497L284 263L501 0H394L211 221ZM202 -228Q218 -213 230 -195T256 -154Q237 -151 226 -137T214 -103Q214 -81 229 -66T267 -51Q290 -51 307 -66T324
-114Q324 -133 319 -149T304 -180T285 -206T264 -228H202Z" />
<glyph unicode="&#x139;" glyph-name="Lacute" horiz-adv-x="562" d="M89 716H184V85H511V0H89V716ZM431 909H552L434 773H349L431 909Z" />
<glyph unicode="&#x13a;" glyph-name="lacute" horiz-adv-x="241" d="M165 716V0H77V716H165ZM410 909H531L413 773H328L410 909Z" />
<glyph unicode="&#x13b;" glyph-name="uni013B" horiz-adv-x="562" d="M89 716H184V85H511V0H89V716ZM248 -228Q264 -213 276 -195T302 -154Q283 -151 272 -137T260 -103Q260 -81 275 -66T313 -51Q336 -51 353 -66T370 -114Q370 -133 365 -149T350 -180T331 -206T310
-228H248Z" />
<glyph unicode="&#x13c;" glyph-name="uni013C" horiz-adv-x="241" d="M165 716V0H77V716H165ZM304 -228Q320 -213 332 -195T358 -154Q339 -151 328 -137T316 -103Q316 -81 331 -66T369 -51Q392 -51 409 -66T426 -114Q426 -133 421 -149T406 -180T387 -206T366 -228H304Z" />
<glyph unicode="&#x13d;" glyph-name="Lcaron" horiz-adv-x="562" d="M89 716H184V85H511V0H89V716ZM260 559L280 716H381L321 559H260Z" />
<glyph unicode="&#x13e;" glyph-name="lcaron" horiz-adv-x="241" d="M165 716V0H77V716H165ZM223 559L243 716H344L284 559H223Z" />
<glyph unicode="&#x13f;" glyph-name="Ldot" horiz-adv-x="562" d="M89 716H184V85H511V0H89V716ZM459 331Q431 331 413 349T394 394Q394 422 412 440T459 458Q487 458 505 440T523 394Q523 368 505 350T459 331Z" />
<glyph unicode="&#x140;" glyph-name="ldot" horiz-adv-x="380" d="M165 716V0H77V716H165ZM312 277Q284 277 266 295T247 340Q247 368 265 386T312 404Q340 404 358 386T376 340Q376 314 358 296T312 277Z" />
<glyph unicode="&#x141;" glyph-name="Lslash" horiz-adv-x="588" d="M28 288L115 330V716H210V377L459 498V408L210 287V85H537V0H115V240L28 198V288Z" />
<glyph unicode="&#x142;" glyph-name="lslash" horiz-adv-x="281" d="M18 323L97 386V716H185V456L269 523V443L185 376V0H97V306L18 243V323Z" />
<glyph unicode="&#x143;" glyph-name="Nacute" horiz-adv-x="755" d="M178 601V0H89V716H216L576 115V716H666V0H538L178 601ZM431 909H552L434 773H349L431 909Z" />
<glyph unicode="&#x144;" glyph-name="nacute" horiz-adv-x="586" d="M323 451Q263 451 226 424T165 353V0H77V519H160L163 426H165Q186 471 231 500T345 529Q422 529 467 489T513 364V0H425V355Q425 409 398 430T323 451ZM326 746H438L325 588H249L326 746Z" />
<glyph unicode="&#x145;" glyph-name="uni0145" horiz-adv-x="755" d="M178 601V0H89V716H216L576 115V716H666V0H538L178 601ZM303 -228Q319 -213 331 -195T357 -154Q338 -151 327 -137T315 -103Q315 -81 330 -66T368 -51Q391 -51 408 -66T425 -114Q425 -133
420 -149T405 -180T386 -206T365 -228H303Z" />
<glyph unicode="&#x146;" glyph-name="uni0146" horiz-adv-x="586" d="M323 451Q263 451 226 424T165 353V0H77V519H160L163 426H165Q186 471 231 500T345 529Q422 529 467 489T513 364V0H425V355Q425 409 398 430T323 451ZM224 -228Q240 -213 252 -195T278 -154Q259
-151 248 -137T236 -103Q236 -81 251 -66T289 -51Q312 -51 329 -66T346 -114Q346 -133 341 -149T326 -180T307 -206T286 -228H224Z" />
<glyph unicode="&#x147;" glyph-name="Ncaron" horiz-adv-x="755" d="M178 601V0H89V716H216L576 115V716H666V0H538L178 601ZM348 763L243 911H319L399 827L478 911H554L448 763H348Z" />
<glyph unicode="&#x148;" glyph-name="ncaron" horiz-adv-x="586" d="M323 451Q263 451 226 424T165 353V0H77V519H160L163 426H165Q186 471 231 500T345 529Q422 529 467 489T513 364V0H425V355Q425 409 398 430T323 451ZM141 736H217L297 652L376 736H452L346
588H246L141 736Z" />
<glyph unicode="&#x14a;" glyph-name="Eng" horiz-adv-x="755" d="M499 -200Q444 -200 398 -184L419 -106Q437 -113 457 -116T498 -119Q576 -119 576 -29V0H538L178 601V0H89V716H216L576 115V716H666V-37Q666 -71 656 -101T626 -153T574 -187T499 -200Z" />
<glyph unicode="&#x14b;" glyph-name="eng" horiz-adv-x="576" d="M513 7Q513 -74 472 -125T335 -186L321 -107Q352 -104 372 -95T404 -71T420 -38T425 1V355Q425 409 398 430T323 451Q263 451 226 424T165 353V0H77V519H160L163 426H165Q186 469 231 499T345
529Q422 529 467 489T513 364V7V7Z" />
<glyph unicode="&#x14c;" glyph-name="Omacron" horiz-adv-x="780" d="M390 -10Q318 -10 255 14T146 86T74 202T47 361Q47 451 73 519T146 633T255 702T390 726Q464 726 527 703T635 633T707 519T733 360Q733 271 707 202T636 86T527 15T390 -10ZM390 75Q442 75
486 90T562 139T613 227T632 358Q632 435 614 489T563 576T486 625T390 641Q339 641 295 626T218 577T167 489T148 358Q148 281 166 227T217 140T294 91T390 75ZM238 878H549V808H238V878Z" />
<glyph unicode="&#x14d;" glyph-name="omacron" horiz-adv-x="582" d="M290 -10Q237 -10 191 8T112 60T59 145T40 260Q40 324 59 374T111 459T191 511T290 529Q344 529 390 511T469 459T522 375T542 260Q542 195 523 145T470 61T390 8T290 -10ZM290 69Q325 69
355 80T406 115T440 175T453 260Q453 309 441 345T407 404T355 439T290 451Q255 451 226 440T176 405T142 345T130 260Q130 211 142 175T175 116T226 81T290 69ZM144 687H433V616H144V687Z" />
<glyph unicode="&#x14e;" glyph-name="Obreve" horiz-adv-x="780" d="M390 -10Q318 -10 255 14T146 86T74 202T47 361Q47 451 73 519T146 633T255 702T390 726Q464 726 527 703T635 633T707 519T733 360Q733 271 707 202T636 86T527 15T390 -10ZM390 75Q442 75
486 90T562 139T613 227T632 358Q632 435 614 489T563 576T486 625T390 641Q339 641 295 626T218 577T167 489T148 358Q148 281 166 227T217 140T294 91T390 75ZM390 766Q350 766 321 778T272 810T243 856T232 911H311Q314 837 390 837Q462 837 468 911H547Q545
882 535 856T506 810T458 778T390 766Z" />
<glyph unicode="&#x14f;" glyph-name="obreve" horiz-adv-x="582" d="M290 -10Q237 -10 191 8T112 60T59 145T40 260Q40 324 59 374T111 459T191 511T290 529Q344 529 390 511T469 459T522 375T542 260Q542 195 523 145T470 61T390 8T290 -10ZM290 69Q325 69 355
80T406 115T440 175T453 260Q453 309 441 345T407 404T355 439T290 451Q255 451 226 440T176 405T142 345T130 260Q130 211 142 175T175 116T226 81T290 69ZM289 588Q251 588 224 599T179 629T152 673T141 729H221Q223 691 240 675T289 658Q322 658 338 674T356
729H436Q435 699 426 674T399 629T354 599T289 588Z" />
<glyph unicode="&#x150;" glyph-name="Ohungarumlaut" horiz-adv-x="780" d="M390 -10Q318 -10 255 14T146 86T74 202T47 361Q47 451 73 519T146 633T255 702T390 726Q464 726 527 703T635 633T707 519T733 360Q733 271 707 202T636 86T527 15T390 -10ZM390 75Q442
75 486 90T562 139T613 227T632 358Q632 435 614 489T563 576T486 625T390 641Q339 641 295 626T218 577T167 489T148 358Q148 281 166 227T217 140T294 91T390 75ZM446 773L510 909H621L526 773H446ZM248 773L312 909H423L328 773H248Z" />
<glyph unicode="&#x151;" glyph-name="ohungarumlaut" horiz-adv-x="582" d="M290 -10Q237 -10 191 8T112 60T59 145T40 260Q40 324 59 374T111 459T191 511T290 529Q344 529 390 511T469 459T522 375T542 260Q542 195 523 145T470 61T390 8T290 -10ZM290 69Q325
69 355 80T406 115T440 175T453 260Q453 309 441 345T407 404T355 439T290 451Q255 451 226 440T176 405T142 345T130 260Q130 211 142 175T175 116T226 81T290 69ZM341 588L399 746H498L411 588H341ZM171 588L228 746H327L241 588H171Z" />
<glyph unicode="&#x152;" glyph-name="OE" horiz-adv-x="970" d="M479 85V631H418Q360 631 311 619T225 577T169 496T149 366Q149 292 169 239T226 152T314 102T428 85H479ZM408 0Q330 0 264 23T149 93T74 207T47 367Q47 466 75 533T154 640T271 698T418 716H895V631H574V414H853V329H574V85H900V0H408Z"
/>
<glyph unicode="&#x153;" glyph-name="oe" horiz-adv-x="960" d="M696 451Q639 451 598 416T546 310H825Q829 382 792 416T696 451ZM290 69Q325 69 355 80T406 115T440 175T453 260Q453 309 441 345T407 404T355 439T290 451Q255 451 226 440T176 405T142 345T130
260Q130 211 142 175T175 116T226 81T290 69ZM902 44Q891 36 875 27T837 10T785 -4T720 -10Q635 -10 580 19T496 106Q466 49 413 20T290 -10Q237 -10 191 8T112 60T59 145T40 260Q40 324 59 374T111 459T191 511T290 529Q360 529 413 499T497 412Q526 469 577 499T698
529Q754 529 798 510T870 454T909 363T909 236H543Q548 152 592 111T727 69Q787 69 830 86T902 123V44Z" />
<glyph unicode="&#x154;" glyph-name="Racute" horiz-adv-x="640" d="M184 0H89V716H308Q435 716 501 667T568 512Q568 418 523 368T403 301L599 0H493L305 291H184V0ZM184 631V376H300Q338 376 369 383T422 406T457 448T470 514Q470 578 428 604T308 631H184ZM359
909H480L362 773H277L359 909Z" />
<glyph unicode="&#x155;" glyph-name="racute" horiz-adv-x="369" d="M334 431Q278 426 233 403T165 330V0H77V519H155L163 406H165Q187 452 228 486T334 529V431V431ZM248 746H360L247 588H171L248 746Z" />
<glyph unicode="&#x156;" glyph-name="uni0156" horiz-adv-x="640" d="M184 0H89V716H308Q435 716 501 667T568 512Q568 418 523 368T403 301L599 0H493L305 291H184V0ZM184 631V376H300Q338 376 369 383T422 406T457 448T470 514Q470 578 428 604T308 631H184ZM265
-228Q281 -213 293 -195T319 -154Q300 -151 289 -137T277 -103Q277 -81 292 -66T330 -51Q353 -51 370 -66T387 -114Q387 -133 382 -149T367 -180T348 -206T327 -228H265Z" />
<glyph unicode="&#x157;" glyph-name="uni0157" horiz-adv-x="369" d="M334 431Q278 426 233 403T165 330V0H77V519H155L163 406H165Q187 452 228 486T334 529V431V431ZM302 -228Q318 -213 330 -195T356 -154Q337 -151 326 -137T314 -103Q314 -81 329 -66T367
-51Q390 -51 407 -66T424 -114Q424 -133 419 -149T404 -180T385 -206T364 -228H302Z" />
<glyph unicode="&#x158;" glyph-name="Rcaron" horiz-adv-x="640" d="M184 0H89V716H308Q435 716 501 667T568 512Q568 418 523 368T403 301L599 0H493L305 291H184V0ZM184 631V376H300Q338 376 369 383T422 406T457 448T470 514Q470 578 428 604T308 631H184ZM276
763L171 911H247L327 827L406 911H482L376 763H276Z" />
<glyph unicode="&#x159;" glyph-name="rcaron" horiz-adv-x="369" d="M334 431Q278 426 233 403T165 330V0H77V519H155L163 406H165Q187 452 228 486T334 529V431V431ZM310 736H386L466 652L545 736H621L515 588H415L310 736Z" />
<glyph unicode="&#x15a;" glyph-name="Sacute" horiz-adv-x="595" d="M283 -10Q242 -10 205 -4T137 12T82 34T43 59L58 149Q73 137 96 124T149 100T212 82T283 75Q361 75 407 104T454 194Q454 224 443 243T411 276T359 299T285 320Q243 331 201 345T126 382T72
440T51 529Q51 621 115 673T309 726Q350 726 382 722T438 711T480 696T511 681L499 590Q464 613 416 627T309 641Q263 641 232 634T181 612T153 578T144 533Q144 503 157 483T193 450T245 427T306 411Q348 400 392 388T471 352T528 293T551 198Q551 141 529 102T469
37T384 1T283 -10ZM337 909H458L340 773H255L337 909Z" />
<glyph unicode="&#x15b;" glyph-name="sacute" horiz-adv-x="492" d="M243 -10Q172 -10 125 3T47 37L68 114Q96 94 141 79T246 64Q295 64 328 83T361 145Q361 168 352 181T326 203T286 216T237 226Q205 233 173 242T116 269T74 312T58 378Q58 448 111 488T261
529Q315 529 355 519T428 493L407 418Q391 427 376 434T343 445T306 452T260 455Q206 455 176 439T145 380Q145 363 153 352T175 332T210 319T256 307Q290 300 324 292T386 267T431 222T449 147Q449 102 431 72T383 24T317 -2T243 -10ZM276 746H388L275 588H199L276
746Z" />
<glyph unicode="&#x15c;" glyph-name="Scircumflex" horiz-adv-x="595" d="M283 -10Q242 -10 205 -4T137 12T82 34T43 59L58 149Q73 137 96 124T149 100T212 82T283 75Q361 75 407 104T454 194Q454 224 443 243T411 276T359 299T285 320Q243 331 201 345T126 382T72
440T51 529Q51 621 115 673T309 726Q350 726 382 722T438 711T480 696T511 681L499 590Q464 613 416 627T309 641Q263 641 232 634T181 612T153 578T144 533Q144 503 157 483T193 450T245 427T306 411Q348 400 392 388T471 352T528 293T551 198Q551 141 529 102T469
37T384 1T283 -10ZM306 847L226 763H150L255 911H355L461 763H385L306 847Z" />
<glyph unicode="&#x15d;" glyph-name="scircumflex" horiz-adv-x="492" d="M243 -10Q172 -10 125 3T47 37L68 114Q96 94 141 79T246 64Q295 64 328 83T361 145Q361 168 352 181T326 203T286 216T237 226Q205 233 173 242T116 269T74 312T58 378Q58 448 111 488T261
529Q315 529 355 519T428 493L407 418Q391 427 376 434T343 445T306 452T260 455Q206 455 176 439T145 380Q145 363 153 352T175 332T210 319T256 307Q290 300 324 292T386 267T431 222T449 147Q449 102 431 72T383 24T317 -2T243 -10ZM245 672L165 588H89L194
736H294L400 588H324L245 672Z" />
<glyph unicode="&#x15e;" glyph-name="uni015E" horiz-adv-x="595" d="M205 -3Q168 3 137 12T82 34T43 59L58 149Q73 137 96 124T149 100T212 82T283 75Q361 75 407 104T454 194Q454 224 443 243T411 276T359 299T285 320Q243 331 201 345T126 382T72 440T51 529Q51
621 115 673T309 726Q350 726 382 722T438 711T480 696T511 681L499 590Q464 613 416 627T309 641Q263 641 232 634T181 612T153 578T144 533Q144 503 157 483T193 450T245 427T306 411Q348 400 392 388T471 352T528 293T551 198Q551 141 529 102T469 37T383 1Q361
-4 337 -7L289 -176H185L257 -9Q230 -8 205 -3Z" />
<glyph unicode="&#x15f;" glyph-name="uni015F" horiz-adv-x="492" d="M125 3Q78 17 47 37L68 114Q96 94 141 79T246 64Q295 64 328 83T361 145Q361 168 352 181T326 203T286 216T237 226Q205 233 173 242T116 269T74 312T58 378Q58 448 111 488T261 529Q315 529
355 519T428 493L407 418Q391 427 376 434T343 445T306 452T260 455Q206 455 176 439T145 380Q145 363 153 352T175 332T210 319T256 307Q290 300 324 292T386 267T431 222T449 147Q449 102 431 72T383 24T316 -2Q300 -6 284 -8L236 -176H132L204 -9Q158 -6 125
3Z" />
<glyph unicode="&#x160;" glyph-name="Scaron" horiz-adv-x="595" d="M283 -10Q242 -10 205 -4T137 12T82 34T43 59L58 149Q73 137 96 124T149 100T212 82T283 75Q361 75 407 104T454 194Q454 224 443 243T411 276T359 299T285 320Q243 331 201 345T126 382T72
440T51 529Q51 621 115 673T309 726Q350 726 382 722T438 711T480 696T511 681L499 590Q464 613 416 627T309 641Q263 641 232 634T181 612T153 578T144 533Q144 503 157 483T193 450T245 427T306 411Q348 400 392 388T471 352T528 293T551 198Q551 141 529 102T469
37T384 1T283 -10ZM254 763L149 911H225L305 827L384 911H460L354 763H254Z" />
<glyph unicode="&#x161;" glyph-name="scaron" horiz-adv-x="492" d="M243 -10Q172 -10 125 3T47 37L68 114Q96 94 141 79T246 64Q295 64 328 83T361 145Q361 168 352 181T326 203T286 216T237 226Q205 233 173 242T116 269T74 312T58 378Q58 448 111 488T261
529Q315 529 355 519T428 493L407 418Q391 427 376 434T343 445T306 452T260 455Q206 455 176 439T145 380Q145 363 153 352T175 332T210 319T256 307Q290 300 324 292T386 267T431 222T449 147Q449 102 431 72T383 24T317 -2T243 -10ZM88 736H164L244 652L323
736H399L293 588H193L88 736Z" />
<glyph unicode="&#x162;" glyph-name="Tcommaaccent" horiz-adv-x="597" d="M341 630V0H245V630H35V716H552V630H341ZM230 -228Q246 -213 258 -195T284 -154Q265 -151 254 -137T242 -103Q242 -81 257 -66T295 -51Q318 -51 335 -66T352 -114Q352 -133 347 -149T332
-180T313 -206T292 -228H230Z" />
<glyph unicode="&#x163;" glyph-name="tcommaaccent" horiz-adv-x="381" d="M344 14Q328 4 298 -3T239 -10Q201 -10 174 1T130 30T105 72T97 121V444H35V519H97V628H186V519H336V444H186V132Q186 99 202 84T251 69Q271 69 291 74T329 90L344 14V14ZM395 -228Q411
-213 423 -195T449 -154Q430 -151 419 -137T407 -103Q407 -81 422 -66T460 -51Q483 -51 500 -66T517 -114Q517 -133 512 -149T497 -180T478 -206T457 -228H395Z" />
<glyph unicode="&#x164;" glyph-name="Tcaron" horiz-adv-x="597" d="M341 630V0H245V630H35V716H552V630H341ZM253 763L148 911H224L304 827L383 911H459L353 763H253Z" />
<glyph unicode="&#x165;" glyph-name="tcaron" horiz-adv-x="381" d="M344 14Q328 4 298 -3T239 -10Q201 -10 174 1T130 30T105 72T97 121V444H35V519H97V628H186V519H336V444H186V132Q186 99 202 84T251 69Q271 69 291 74T329 90L344 14V14ZM254 580L274 737H375L315
580H254Z" />
<glyph unicode="&#x166;" glyph-name="Tbar" horiz-adv-x="587" d="M75 431H245V630H35V716H552V630H341V431H511V356H341V0H245V356H75V431Z" />
<glyph unicode="&#x167;" glyph-name="tbar" horiz-adv-x="381" d="M345 14Q329 4 299 -3T240 -10Q202 -10 175 1T131 30T106 72T98 121V278H36V353H98V444H36V519H98V628H187V519H337V444H187V353H337V278H187V132Q187 99 203 84T252 69Q272 69 292 74T330 90L345 14Z" />
<glyph unicode="&#x168;" glyph-name="Utilde" horiz-adv-x="708" d="M72 716H167V245Q167 158 216 116T353 74Q394 74 429 84T491 116T531 170T546 245V716H636V248Q636 186 614 138T554 57T464 7T351 -10Q291 -10 240 6T152 54T93 133T72 244V716ZM187 783Q183
808 187 832T203 876T235 906T285 918Q311 918 331 910T369 891T400 872T430 863Q471 863 468 922H531Q535 897 531 873T515 830T483 800T433 788Q407 788 387 796T350 815T318 834T288 843Q267 843 258 829T251 783H187V783Z" />
<glyph unicode="&#x169;" glyph-name="utilde" horiz-adv-x="575" d="M410 93Q389 49 346 20T232 -10Q160 -10 116 30T71 156V519H160V156Q160 130 167 114T188 87T218 73T257 69Q315 69 350 95T410 166V519H498V0H421L412 93H410V93ZM122 598Q119 620 122 643T137
684T167 713T214 725Q238 725 257 718T292 701T321 685T349 677Q369 677 377 691T383 729H446Q449 706 446 684T431 643T400 614T354 602Q330 602 311 609T276 626T246 642T219 650Q200 650 192 636T185 598H122V598Z" />
<glyph unicode="&#x16a;" glyph-name="Umacron" horiz-adv-x="708" d="M72 716H167V245Q167 158 216 116T353 74Q394 74 429 84T491 116T531 170T546 245V716H636V248Q636 186 614 138T554 57T464 7T351 -10Q291 -10 240 6T152 54T93 133T72 244V716ZM199 878H510V808H199V878Z"
/>
<glyph unicode="&#x16b;" glyph-name="umacron" horiz-adv-x="575" d="M410 93Q389 49 346 20T232 -10Q160 -10 116 30T71 156V519H160V156Q160 130 167 114T188 87T218 73T257 69Q315 69 350 95T410 166V519H498V0H421L412 93H410V93ZM143 687H432V616H143V687Z" />
<glyph unicode="&#x16c;" glyph-name="Ubreve" horiz-adv-x="708" d="M72 716H167V245Q167 158 216 116T353 74Q394 74 429 84T491 116T531 170T546 245V716H636V248Q636 186 614 138T554 57T464 7T351 -10Q291 -10 240 6T152 54T93 133T72 244V716ZM356 766Q316
766 287 778T238 810T209 856T198 911H277Q280 837 356 837Q428 837 434 911H513Q511 882 501 856T472 810T424 778T356 766Z" />
<glyph unicode="&#x16d;" glyph-name="ubreve" horiz-adv-x="575" d="M410 93Q389 49 346 20T232 -10Q160 -10 116 30T71 156V519H160V156Q160 130 167 114T188 87T218 73T257 69Q315 69 350 95T410 166V519H498V0H421L412 93H410V93ZM288 588Q250 588 223 599T178
629T151 673T140 729H220Q222 691 239 675T288 658Q321 658 337 674T355 729H435Q434 699 425 674T398 629T353 599T288 588Z" />
<glyph unicode="&#x16e;" glyph-name="Uring" horiz-adv-x="708" d="M72 716H167V245Q167 158 216 116T353 74Q394 74 429 84T491 116T531 170T546 245V716H636V248Q636 186 614 138T554 57T464 7T351 -10Q291 -10 240 6T152 54T93 133T72 244V716ZM354 981Q306
981 275 1011T244 1090Q244 1138 275 1168T354 1199Q402 1199 433 1169T465 1090Q465 1042 434 1012T354 981ZM354 1036Q377 1036 393 1051T409 1090Q409 1114 393 1129T354 1145Q331 1145 316 1130T301 1090Q301 1066 316 1051T354 1036Z" />
<glyph unicode="&#x16f;" glyph-name="uring" horiz-adv-x="575" d="M410 93Q389 49 346 20T232 -10Q160 -10 116 30T71 156V519H160V156Q160 130 167 114T188 87T218 73T257 69Q315 69 350 95T410 166V519H498V0H421L412 93H410V93ZM286 571Q238 571 207 601T176
680Q176 728 207 758T286 789Q334 789 365 759T397 680Q397 656 389 636T365 602T330 579T286 571ZM286 626Q309 626 325 641T341 680Q341 704 325 719T286 735Q263 735 248 720T233 680Q233 656 248 641T286 626Z" />
<glyph unicode="&#x170;" glyph-name="Uhungarumlaut" horiz-adv-x="708" d="M72 716H167V245Q167 158 216 116T353 74Q394 74 429 84T491 116T531 170T546 245V716H636V248Q636 186 614 138T554 57T464 7T351 -10Q291 -10 240 6T152 54T93 133T72 244V716ZM410
773L474 909H585L490 773H410ZM212 773L276 909H387L292 773H212Z" />
<glyph unicode="&#x171;" glyph-name="uhungarumlaut" horiz-adv-x="575" d="M410 93Q389 49 346 20T232 -10Q160 -10 116 30T71 156V519H160V156Q160 130 167 114T188 87T218 73T257 69Q315 69 350 95T410 166V519H498V0H421L412 93H410V93ZM340 588L398 746H497L410
588H340ZM170 588L227 746H326L240 588H170Z" />
<glyph unicode="&#x172;" glyph-name="Uogonek" horiz-adv-x="708" d="M385 -81Q385 -98 395 -108T429 -119Q442 -119 453 -117T475 -110L487 -173Q477 -178 459 -183T418 -188Q361 -188 331 -164T300 -100Q300 -65 317 -44T358 -10H351Q291 -10 240 6T152 54T93
133T72 244V716H167V245Q167 158 216 116T353 74Q394 74 429 84T491 116T531 170T546 245V716H636V248Q636 161 595 104T488 12Q439 -12 412 -32T385 -81Z" />
<glyph unicode="&#x173;" glyph-name="uogonek" horiz-adv-x="575" d="M426 -81Q426 -98 436 -108T470 -119Q484 -119 494 -117T516 -110L528 -173Q518 -178 500 -183T459 -188Q402 -188 372 -164T341 -100Q341 -79 348 -63T366 -34T392 -14T420 0L412 93H410Q389
49 346 20T232 -10Q160 -10 116 30T71 156V519H160V156Q160 130 167 114T188 87T218 73T257 69Q315 69 350 95T410 166V519H498V0Q485 -7 473 -16T450 -35T433 -57T426 -81Z" />
<glyph unicode="&#x174;" glyph-name="Wcircumflex" horiz-adv-x="941" d="M26 716H124L259 86L424 716H530L690 98L825 716H915L758 0H620L473 589L323 0H185L26 716ZM480 847L400 763H324L429 911H529L635 763H559L480 847Z" />
<glyph unicode="&#x175;" glyph-name="wcircumflex" horiz-adv-x="774" d="M35 519H128L222 69L343 519H442L560 74L653 519H739L627 0H492L386 398L279 0H148L35 519ZM400 672L320 588H244L349 736H449L555 588H479L400 672Z" />
<glyph unicode="&#x176;" glyph-name="Ycircumflex" horiz-adv-x="611" d="M259 0V307L13 716H122L310 390L502 716H598L355 312V0H259ZM311 847L231 763H155L260 911H360L466 763H390L311 847Z" />
<glyph unicode="&#x177;" glyph-name="ycircumflex" horiz-adv-x="521" d="M111 -187Q94 -187 80 -185T56 -179L67 -102Q72 -104 82 -106T109 -108Q146 -108 170 -91T215 -35L15 519H110L263 79L419 519H505L322 6Q288 -88 240 -137T111 -187ZM279 672L199 588H123L228
736H328L434 588H358L279 672Z" />
<glyph unicode="&#x178;" glyph-name="Ydieresis" horiz-adv-x="611" d="M259 0V307L13 716H122L310 390L502 716H598L355 312V0H259ZM428 786Q402 786 387 802T371 842Q371 866 386 882T428 899Q454 899 469 883T485 842Q485 819 470 803T428 786ZM192 786Q166
786 151 802T136 842Q136 866 151 882T192 899Q218 899 233 883T249 842Q249 819 234 803T192 786Z" />
<glyph unicode="&#x179;" glyph-name="Zacute" horiz-adv-x="604" d="M48 0V68L430 631H59V716H544V648L161 85H545V0H48ZM339 909H460L342 773H257L339 909Z" />
<glyph unicode="&#x17a;" glyph-name="zacute" horiz-adv-x="459" d="M40 0V57L304 444H48V519H412V462L150 75H413V0H40ZM269 746H381L268 588H192L269 746Z" />
<glyph unicode="&#x17b;" glyph-name="Zdotaccent" horiz-adv-x="604" d="M48 0V68L430 631H59V716H544V648L161 85H545V0H48ZM304 786Q278 786 263 802T247 842Q247 866 262 882T304 899Q330 899 346 883T362 842Q362 819 346 803T304 786Z" />
<glyph unicode="&#x17c;" glyph-name="zdotaccent" horiz-adv-x="459" d="M40 0V57L304 444H48V519H412V462L150 75H413V0H40ZM233 595Q207 595 192 611T176 650Q176 675 191 691T233 708Q259 708 275 692T291 650Q291 627 275 611T233 595Z" />
<glyph unicode="&#x17d;" glyph-name="Zcaron" horiz-adv-x="604" d="M48 0V68L430 631H59V716H544V648L161 85H545V0H48ZM264 763L159 911H235L315 827L394 911H470L364 763H264Z" />
<glyph unicode="&#x17e;" glyph-name="zcaron" horiz-adv-x="459" d="M40 0V57L304 444H48V519H412V462L150 75H413V0H40ZM76 736H152L232 652L311 736H387L281 588H181L76 736Z" />
<glyph unicode="&#x192;" glyph-name="uni0192" horiz-adv-x="556" d="M53 -187Q27 -187 6 -184T-31 -175L-12 -104Q-4 -108 16 -112T54 -116Q102 -116 127 -84T165 22L222 363H132L148 434H234L249 523Q266 630 316 678T446 726Q471 726 488 724T517 718L504
641Q496 645 478 647T443 650Q419 650 401 644T371 623T350 584T335 523L320 434H463L448 363H308L250 16Q216 -187 53 -187Z" />
<glyph unicode="&#x218;" glyph-name="uni0218" horiz-adv-x="595" d="M283 -10Q242 -10 205 -4T137 12T82 34T43 59L58 149Q73 137 96 124T149 100T212 82T283 75Q361 75 407 104T454 194Q454 224 443 243T411 276T359 299T285 320Q243 331 201 345T126 382T72
440T51 529Q51 621 115 673T309 726Q350 726 382 722T438 711T480 696T511 681L499 590Q464 613 416 627T309 641Q263 641 232 634T181 612T153 578T144 533Q144 503 157 483T193 450T245 427T306 411Q348 400 392 388T471 352T528 293T551 198Q551 141 529 102T469
37T384 1T283 -10ZM231 -228Q247 -213 259 -195T285 -154Q266 -151 255 -137T243 -103Q243 -81 258 -66T296 -51Q319 -51 336 -66T353 -114Q353 -133 348 -149T333 -180T314 -206T293 -228H231Z" />
<glyph unicode="&#x219;" glyph-name="uni0219" horiz-adv-x="492" d="M243 -10Q172 -10 125 3T47 37L68 114Q96 94 141 79T246 64Q295 64 328 83T361 145Q361 168 352 181T326 203T286 216T237 226Q205 233 173 242T116 269T74 312T58 378Q58 448 111 488T261
529Q315 529 355 519T428 493L407 418Q391 427 376 434T343 445T306 452T260 455Q206 455 176 439T145 380Q145 363 153 352T175 332T210 319T256 307Q290 300 324 292T386 267T431 222T449 147Q449 102 431 72T383 24T317 -2T243 -10ZM171 -228Q187 -213 199 -195T225
-154Q206 -151 195 -137T183 -103Q183 -81 198 -66T236 -51Q259 -51 276 -66T293 -114Q293 -133 288 -149T273 -180T254 -206T233 -228H171Z" />
<glyph unicode="&#x21a;" glyph-name="uni021A" horiz-adv-x="597" d="M341 630V0H245V630H35V716H552V630H341ZM230 -228Q246 -213 258 -195T284 -154Q265 -151 254 -137T242 -103Q242 -81 257 -66T295 -51Q318 -51 335 -66T352 -114Q352 -133 347 -149T332 -180T313
-206T292 -228H230Z" />
<glyph unicode="&#x21b;" glyph-name="uni021B" horiz-adv-x="381" d="M344 14Q328 4 298 -3T239 -10Q201 -10 174 1T130 30T105 72T97 121V444H35V519H97V628H186V519H336V444H186V132Q186 99 202 84T251 69Q271 69 291 74T329 90L344 14V14ZM395 -228Q411 -213
423 -195T449 -154Q430 -151 419 -137T407 -103Q407 -81 422 -66T460 -51Q483 -51 500 -66T517 -114Q517 -133 512 -149T497 -180T478 -206T457 -228H395Z" />
<glyph unicode="&#x237;" glyph-name="uni0237" horiz-adv-x="249" d="M-16 -107Q15 -104 35 -95T68 -71T84 -38T89 1V519H176V7Q176 -74 135 -125T-2 -186L-16 -107Z" />
<glyph unicode="&#x2bc;" glyph-name="uni02BC" horiz-adv-x="262" d="M66 519Q81 536 94 559T116 612Q96 617 84 633T72 670Q72 696 88 712T133 729Q160 729 178 711T196 659Q196 638 190 618T174 580T153 546T131 519H66Z" />
<glyph unicode="&#x2c6;" glyph-name="circumflex" horiz-adv-x="461" d="M231 672L151 588H75L180 736H280L386 588H310L231 672Z" />
<glyph unicode="&#x2c7;" glyph-name="caron" horiz-adv-x="461" d="M75 736H151L231 652L310 736H386L280 588H180L75 736Z" />
<glyph unicode="&#x2d8;" glyph-name="breve" horiz-adv-x="460" d="M230 588Q192 588 165 599T120 629T93 673T82 729H162Q164 691 181 675T230 658Q263 658 279 674T297 729H377Q376 699 367 674T340 629T295 599T230 588Z" />
<glyph unicode="&#x2d9;" glyph-name="dotaccent" horiz-adv-x="461" d="M230 595Q204 595 189 611T173 650Q173 675 188 691T230 708Q256 708 272 692T288 650Q288 627 272 611T230 595Z" />
<glyph unicode="&#x2da;" glyph-name="ring" horiz-adv-x="461" d="M230 571Q182 571 151 601T120 680Q120 728 151 758T230 789Q278 789 309 759T341 680Q341 656 333 636T309 602T274 579T230 571ZM230 626Q253 626 269 641T285 680Q285 704 269 719T230 735Q207
735 192 720T177 680Q177 656 192 641T230 626Z" />
<glyph unicode="&#x2db;" glyph-name="ogonek" horiz-adv-x="460" d="M254 -188Q197 -188 167 -164T136 -100Q136 -79 143 -63T161 -34T186 -14T214 0H293Q280 -7 268 -16T245 -35T228 -57T221 -81Q221 -98 231 -108T265 -119Q278 -119 289 -117T311 -110L323
-173Q313 -178 295 -183T254 -188Z" />
<glyph unicode="&#x2dc;" glyph-name="tilde" horiz-adv-x="461" d="M68 598Q65 620 68 643T83 684T113 713T160 725Q184 725 203 718T238 701T267 685T295 677Q315 677 323 691T329 729H392Q395 706 392 684T377 643T346 614T300 602Q276 602 257 609T222 626T192
642T165 650Q146 650 138 636T131 598H68V598Z" />
<glyph unicode="&#x2dd;" glyph-name="hungarumlaut" horiz-adv-x="461" d="M256 588L314 746H413L326 588H256ZM86 588L143 746H242L156 588H86Z" />
<glyph unicode="&#x301;" glyph-name="acutecomb" horiz-adv-x="0" d="M-239 746H-127L-240 588H-316L-239 746Z" />
<glyph unicode="&#x401;" glyph-name="uni0401" horiz-adv-x="577" d="M89 716H502V631H184V414H460V329H184V85H507V0H89V716ZM413 786Q387 786 372 802T356 842Q356 866 371 882T413 899Q439 899 454 883T470 842Q470 819 455 803T413 786ZM177 786Q151 786
136 802T121 842Q121 866 136 882T177 899Q203 899 218 883T234 842Q234 819 219 803T177 786Z" />
<glyph unicode="&#x402;" glyph-name="uni0402" horiz-adv-x="810" d="M341 630V409Q365 427 406 439Q449 452 498 452Q559 452 608 435T692 383T745 298T764 184Q764 46 696 -26T511 -98L498 -10Q587 -10 628 39T669 182Q669 270 627 318T496 367Q449 367 410
356T341 323V0H245V630H35V716H552V630H341Z" />
<glyph unicode="&#x403;" glyph-name="uni0403" horiz-adv-x="534" d="M308 909H429L311 773H226L308 909ZM184 631V0H89V716H487V631H184Z" />
<glyph unicode="&#x404;" glyph-name="uni0404" horiz-adv-x="652" d="M601 51Q572 28 520 9T395 -10Q320 -10 256 15T146 87T73 203T47 358Q47 445 71 513T140 628T249 701T393 726Q463 726 515 710T601 674L586 582Q547 610 498 625T392 641Q286 641 224 582T151
404H476V320H150Q160 196 227 136T403 75Q454 75 494 89T574 131L601 51V51Z" />
<glyph unicode="&#x405;" glyph-name="uni0405" horiz-adv-x="595" d="M283 -10Q242 -10 205 -4T137 12T82 34T43 59L58 149Q73 137 96 124T149 100T212 82T283 75Q361 75 407 104T454 194Q454 224 443 243T411 276T359 299T285 320Q243 331 201 345T126 382T72
440T51 529Q51 621 115 673T309 726Q350 726 382 722T438 711T480 696T511 681L499 590Q464 613 416 627T309 641Q263 641 232 634T181 612T153 578T144 533Q144 503 157 483T193 450T245 427T306 411Q348 400 392 388T471 352T528 293T551 198Q551 141 529 102T469
37T384 1T283 -10Z" />
<glyph unicode="&#x406;" glyph-name="uni0406" horiz-adv-x="272" d="M184 716V0H89V716H184Z" />
<glyph unicode="&#x407;" glyph-name="uni0407" horiz-adv-x="272" d="M238 786Q212 786 196 802T180 842Q180 866 196 882T238 899Q264 899 279 883T295 842Q295 819 280 803T238 786ZM33 786Q7 786 -8 802T-24 842Q-24 866 -9 882T33 899Q59 899 74 883T90 842Q90
819 75 803T33 786ZM184 716V0H89V716H184Z" />
<glyph unicode="&#x408;" glyph-name="uni0408" horiz-adv-x="383" d="M298 716V133Q298 106 288 80T258 34T206 2T131 -10Q105 -10 79 -6T30 7L42 92Q53 87 65 83Q76 80 89 78T119 75Q203 75 203 161V716H298Z" />
<glyph unicode="&#x409;" glyph-name="uni0409" horiz-adv-x="1006" d="M222 197Q213 155 200 118T164 52T109 9T30 -4L19 91Q45 88 64 96T96 121T118 162T133 216Q149 291 153 415T160 716H582V439H713Q833 439 897 389T961 227Q961 165 942 122T889 52T806 13T700
0H488V631H249Q246 485 241 379T222 197ZM582 355V85H700Q736 85 765 92T816 115T850 157T862 223Q862 289 823 322T710 355H582Z" />
<glyph unicode="&#x40a;" glyph-name="uni040A" horiz-adv-x="1070" d="M646 334V85H764Q800 85 829 91T880 112T914 151T926 212Q926 274 887 304T774 334H646ZM552 334H184V0H89V716H184V419H552V716H646V419H777Q896 419 960 371T1025 216Q1025 157 1006 116T953
50T870 12T764 0H552V334Z" />
<glyph unicode="&#x40b;" glyph-name="uni040B" horiz-adv-x="803" d="M341 630V409Q364 424 404 438Q446 452 507 452Q557 452 598 439T670 396T717 321T734 210V0H638V205Q638 252 628 283T599 333T556 359T502 367Q455 367 415 357T341 323V0H245V630H35V716H552V630H341Z"
/>
<glyph unicode="&#x40c;" glyph-name="uni040C" horiz-adv-x="641" d="M247 312H184V0H89V716H184V397H243L499 716H605L322 364L615 0H499L247 312ZM338 909H459L341 773H256L338 909Z" />
<glyph unicode="&#x40e;" glyph-name="uni040E" horiz-adv-x="630" d="M331 756Q289 756 258 767T205 798T174 844T164 902H252Q252 858 272 840T331 821Q367 821 388 839T409 902H497Q497 871 487 845T456 799T404 768T331 756ZM164 -2Q156 -2 148 -2T135 0L126
93Q135 91 145 91T163 90Q211 90 240 114T290 177L24 716H131L338 285L516 716H613L387 194Q366 147 345 111T298 49T240 11T164 -2Z" />
<glyph unicode="&#x40f;" glyph-name="uni040F" horiz-adv-x="734" d="M414 0L410 -170H325L322 0H89V716H184V85H552V716H646V0H414Z" />
<glyph unicode="&#x410;" glyph-name="uni0410" horiz-adv-x="661" d="M324 641L208 288H441L324 641ZM468 205H181L113 0H25L260 716H400L636 0H536L468 205Z" />
<glyph unicode="&#x411;" glyph-name="uni0411" horiz-adv-x="621" d="M184 344V85H301Q337 85 366 91T417 114T451 155T463 218Q463 282 424 313T311 344H184ZM89 716H515V631H184V429H314Q434 429 498 380T562 222Q562 162 543 120T490 51T407 12T301 0H89V716Z" />
<glyph unicode="&#x412;" glyph-name="uni0412" horiz-adv-x="625" d="M184 631V411H283Q352 411 394 441T437 537Q437 592 399 611T291 631H184ZM184 326V85H299Q337 85 368 91T421 111T456 148T469 205Q469 273 426 299T289 326H184ZM89 716H291Q408 716 470
677T532 542Q532 466 494 427T392 373Q479 364 523 326T568 207Q568 151 548 112T492 48T407 12T299 0H89V716Z" />
<glyph unicode="&#x413;" glyph-name="uni0413" horiz-adv-x="534" d="M184 631V0H89V716H487V631H184Z" />
<glyph unicode="&#x414;" glyph-name="uni0414" horiz-adv-x="756" d="M527 631H273Q270 516 264 429T248 276T221 164T181 85H527V631ZM616 0H122L111 -170H27V85H75Q109 116 129 168T161 298T178 478T186 716H622V85H713V-170H627L616 0Z" />
<glyph unicode="&#x415;" glyph-name="uni0415" horiz-adv-x="577" d="M89 716H502V631H184V414H460V329H184V85H507V0H89V716Z" />
<glyph unicode="&#x416;" glyph-name="uni0416" horiz-adv-x="954" d="M428 315H385L135 0H23L314 365L36 716H138L388 394H428V716H523V394H566L815 716H919L638 363L931 0H816L564 315H523V0H428V315Z" />
<glyph unicode="&#x417;" glyph-name="uni0417" horiz-adv-x="585" d="M261 -10Q223 -10 190 -4T128 13T79 35T45 58L72 140Q114 111 160 93T266 75Q298 75 327 81T379 103T415 143T429 205Q429 273 388 300T267 328H174V408H265Q335 408 371 440T407 530Q407
592 369 617T268 642Q213 642 170 628T91 592L61 672Q93 692 146 709T269 726Q323 726 366 715T439 680T486 621T503 536Q503 473 468 432T363 375Q444 364 486 323T528 207Q528 150 507 109T450 41T365 3T261 -10Z" />
<glyph unicode="&#x418;" glyph-name="uni0418" horiz-adv-x="768" d="M89 716H184V126L577 716H679V0H583V588L191 0H89V716Z" />
<glyph unicode="&#x419;" glyph-name="uni0419" horiz-adv-x="768" d="M375 756Q333 756 302 767T249 798T218 844T208 902H296Q296 858 317 840T375 821Q412 821 433 839T454 902H541Q541 871 531 845T501 799T449 768T375 756ZM89 716H184V126L577 716H679V0H583V588L191
0H89V716Z" />
<glyph unicode="&#x41a;" glyph-name="uni041A" horiz-adv-x="641" d="M247 312H184V0H89V716H184V397H243L499 716H605L322 364L615 0H499L247 312Z" />
<glyph unicode="&#x41b;" glyph-name="uni041B" horiz-adv-x="691" d="M222 197Q213 155 200 118T164 52T109 9T30 -4L19 85Q71 84 96 120T133 216Q149 291 153 415T160 716H581V0H487V631H249Q246 485 241 379T222 197Z" />
<glyph unicode="&#x41c;" glyph-name="uni041C" horiz-adv-x="887" d="M395 110L178 586V0H89V716H221L443 214L676 716H798V0H703V576L482 109H394L395 110Z" />
<glyph unicode="&#x41d;" glyph-name="uni041D" horiz-adv-x="735" d="M552 313H184V0H89V716H184V398H552V716H646V0H552V313Z" />
<glyph unicode="&#x41e;" glyph-name="uni041E" horiz-adv-x="780" d="M390 -10Q318 -10 255 14T146 86T74 202T47 361Q47 451 73 519T146 633T255 702T390 726Q464 726 527 703T635 633T707 519T733 360Q733 271 707 202T636 86T527 15T390 -10ZM390 75Q442 75
486 90T562 139T613 227T632 358Q632 435 614 489T563 576T486 625T390 641Q339 641 295 626T218 577T167 489T148 358Q148 281 166 227T217 140T294 91T390 75Z" />
<glyph unicode="&#x41f;" glyph-name="uni041F" horiz-adv-x="716" d="M533 631H184V0H89V716H628V0H533V631Z" />
<glyph unicode="&#x420;" glyph-name="uni0420" horiz-adv-x="600" d="M184 631V364H290Q328 364 359 372T412 397T447 441T460 508Q460 573 418 602T298 631H184ZM184 279V0H89V716H298Q420 716 487 666T555 509Q555 448 536 405T481 333T397 292T290 279H184Z" />
<glyph unicode="&#x421;" glyph-name="uni0421" horiz-adv-x="654" d="M397 -10Q322 -10 258 15T147 87T74 203T47 358Q47 445 71 513T141 628T251 701T395 726Q465 726 517 710T603 674L588 582Q549 610 500 625T394 641Q278 641 214 571T149 358Q149 216 218
146T405 75Q456 75 497 90T577 130L603 51Q574 28 522 9T397 -10Z" />
<glyph unicode="&#x422;" glyph-name="uni0422" horiz-adv-x="587" d="M341 630V0H245V630H35V716H552V630H341Z" />
<glyph unicode="&#x423;" glyph-name="uni0423" horiz-adv-x="630" d="M164 -2Q156 -2 148 -2T135 0L126 93Q135 91 145 91T163 90Q211 90 240 114T290 177L24 716H131L338 285L516 716H613L387 194Q366 147 345 111T298 49T240 11T164 -2Z" />
<glyph unicode="&#x424;" glyph-name="uni0424" horiz-adv-x="829" d="M367 73Q299 74 241 92T139 146T72 234T47 356Q47 426 71 478T139 567T240 622T367 643V725H462V643Q530 641 588 623T690 570T757 482T782 360Q782 291 758 238T690 149T589 94T462 73V-10H367V73ZM683
357Q683 414 666 453T620 517T550 553T462 567V147Q509 150 549 161T619 198T666 261T683 357ZM367 568Q320 566 280 555T210 519T163 455T146 359Q146 302 163 263T209 199T279 162T367 148V568Z" />
<glyph unicode="&#x425;" glyph-name="uni0425" horiz-adv-x="657" d="M322 307L113 0H13L275 377L47 716H159L343 443L518 716H618L389 375L643 0H530L322 307Z" />
<glyph unicode="&#x426;" glyph-name="uni0426" horiz-adv-x="766" d="M634 -170L624 0H89V716H184V85H533V716H628V85H722V-170H634Z" />
<glyph unicode="&#x427;" glyph-name="uni0427" horiz-adv-x="689" d="M505 0V340Q466 303 417 283T307 263Q255 263 211 277T136 323T87 402T69 518V716H164V523Q164 431 202 387T307 343Q374 343 422 365T505 436V716H600V0H505Z" />
<glyph unicode="&#x428;" glyph-name="uni0428" horiz-adv-x="961" d="M89 716H184V85H431V716H528V85H777V716H872V0H89V716Z" />
<glyph unicode="&#x429;" glyph-name="uni0429" horiz-adv-x="1009" d="M876 -170L865 0H89V716H184V85H431V716H528V85H777V716H872V85H962V-170H876Z" />
<glyph unicode="&#x42a;" glyph-name="uni042A" horiz-adv-x="734" d="M310 439H442Q561 439 625 389T689 227Q689 165 670 122T616 52T533 13T428 0H215V631H35V716H310V439ZM310 355V85H428Q464 85 493 92T544 115T578 157T590 223Q590 289 551 322T438 355H310Z" />
<glyph unicode="&#x42b;" glyph-name="uni042B" horiz-adv-x="852" d="M763 715V0H668V715H763ZM184 355V85H301Q337 85 366 92T417 115T451 157T463 223Q463 289 424 322T311 355H184ZM89 716H184V439H314Q434 439 498 389T562 227Q562 165 543 122T490 52T407
13T301 0H89V716Z" />
<glyph unicode="&#x42c;" glyph-name="uni042C" horiz-adv-x="607" d="M184 355V85H301Q337 85 366 92T417 115T451 157T463 223Q463 289 424 322T311 355H184ZM89 716H184V439H314Q434 439 498 389T562 227Q562 165 543 122T490 52T407 13T301 0H89V716Z" />
<glyph unicode="&#x42d;" glyph-name="uni042D" horiz-adv-x="657" d="M264 -10Q192 -10 138 5T51 41L66 130Q105 106 155 90T265 74Q379 74 438 133T505 313H189V398H506Q497 519 434 579T254 640Q200 640 160 626T78 581L51 666Q80 688 133 707T262 726Q340
726 404 701T513 629T584 513T609 358Q609 271 587 203T520 88T412 15T264 -10Z" />
<glyph unicode="&#x42e;" glyph-name="uni042E" horiz-adv-x="980" d="M610 -10Q545 -10 489 10T391 71T322 172T289 313H184V0H89V716H184V398H290Q296 477 322 538T390 641T489 704T610 726Q678 726 737 703T839 634T908 520T933 361Q933 271 908 202T840 86T737
15T610 -10ZM610 75Q658 75 698 90T768 139T815 227T832 358Q832 435 815 489T769 576T699 625T610 641Q562 641 522 626T452 577T406 489T389 358Q389 281 405 227T451 140T521 91T610 75Z" />
<glyph unicode="&#x42f;" glyph-name="uni042F" horiz-adv-x="642" d="M459 372V631H341Q305 631 276 625T225 603T191 564T179 503Q179 435 218 404T331 372H459ZM459 287H339L141 0H26L243 304Q164 321 122 369T80 503Q80 560 99 600T152 666T235 704T341 716H554V0H459V287Z"
/>
<glyph unicode="&#x430;" glyph-name="uni0430" horiz-adv-x="529" d="M219 69Q247 69 270 77T312 98T345 126T370 156V242H302Q208 242 170 218T132 148Q132 113 153 91T219 69ZM375 86Q364 69 349 52T312 21T262 -1T200 -10Q130 -10 87 29T44 143Q44 312 294
312H370V351Q370 405 342 428T247 451Q196 451 157 438T88 408L67 481Q94 498 142 513T253 529Q353 529 405 488T458 362V84Q458 75 458 64T459 40T461 18T463 0H382Q380 14 378 39T375 84V86Z" />
<glyph unicode="&#x431;" glyph-name="uni0431" horiz-adv-x="602" d="M312 -10Q256 -10 210 8T129 65T76 161T57 298Q57 363 61 422T78 531T119 621T191 690Q242 719 297 724T407 731Q446 734 470 741T514 760L528 678Q508 664 479 659T416 650Q387 648 361 647T312
644T267 636T226 621Q175 593 155 539T130 409Q156 466 205 496T326 526Q375 526 417 509T491 457T541 374T559 260Q559 195 540 145T488 61T410 8T312 -10ZM310 69Q344 69 373 80T423 115T456 175T468 260Q468 309 456 345T423 404T371 439T306 451Q237 451 192
405T146 263Q146 213 158 177T192 116T244 81T310 69Z" />
<glyph unicode="&#x432;" glyph-name="uni0432" horiz-adv-x="531" d="M165 444V303H263Q313 303 343 321T374 373Q374 414 347 429T270 444H165ZM165 233V75H268Q296 75 318 78T357 91T383 115T392 152Q392 197 362 215T268 233H165ZM77 519H271Q365 519 413
487T461 385Q461 339 438 312T371 272Q482 254 482 149Q482 109 466 81T422 34T355 8T269 0H77V519Z" />
<glyph unicode="&#x433;" glyph-name="uni0433" horiz-adv-x="437" d="M165 444V0H77V519H397V444H165Z" />
<glyph unicode="&#x434;" glyph-name="uni0434" horiz-adv-x="597" d="M406 444H217Q214 370 209 311T197 207T177 130T148 75H406V444ZM484 0H98L89 -148H10V75H49Q77 92 93 128T118 219T130 349T137 519H494V75H572V-148H495L484 0Z" />
<glyph unicode="&#x435;" glyph-name="uni0435" horiz-adv-x="543" d="M285 451Q227 451 186 416T134 310H413Q415 346 406 372T380 416T339 442T285 451ZM492 44Q481 36 465 27T425 10T373 -4T307 -10Q176 -10 108 61T40 260Q40 323 58 373T110 457T188 510T287
529Q342 529 386 510T458 454T497 363T497 236H131Q136 152 182 111T312 69Q367 69 405 86T469 122L492 44Z" />
<glyph unicode="&#x436;" glyph-name="uni0436" horiz-adv-x="760" d="M336 519H424V296H471L636 519H733L540 265L740 0H633L467 221H424V0H336V221H292L124 0H20L220 261L27 519H128L290 296H336V519Z" />
<glyph unicode="&#x437;" glyph-name="uni0437" horiz-adv-x="465" d="M205 -10Q148 -10 106 2T38 33L65 109Q91 93 125 81T203 69Q230 69 253 73T293 87T321 112T331 151Q331 195 302 213T209 232H140V303H212Q315 303 315 380Q315 400 307 413T284 435T250 447T210
451Q166 451 133 439T70 410L49 483Q74 500 115 514T213 529Q304 529 350 493T396 389Q396 337 368 308T292 270Q416 255 416 151Q416 107 399 77T352 27T284 -1T205 -10Z" />
<glyph unicode="&#x438;" glyph-name="uni0438" horiz-adv-x="608" d="M77 519H165V120L442 519H531V0H443V398L167 0H77V519Z" />
<glyph unicode="&#x439;" glyph-name="uni0439" horiz-adv-x="608" d="M306 588Q266 588 237 598T188 627T159 670T149 724H237Q237 686 255 669T306 652Q338 652 356 669T374 724H462Q462 667 424 628T306 588ZM77 519H165V120L442 519H531V0H443V398L167 0H77V519Z" />
<glyph unicode="&#x43a;" glyph-name="uni043A" horiz-adv-x="519" d="M211 221H165V0H77V519H165V296H215L397 519H497L284 263L501 0H394L211 221Z" />
<glyph unicode="&#x43b;" glyph-name="uni043B" horiz-adv-x="554" d="M198 134Q181 63 144 30T39 -2L26 78Q95 75 115 152Q130 210 134 298T139 519H477V0H389V444H222Q221 345 217 268T198 134Z" />
<glyph unicode="&#x43c;" glyph-name="uni043C" horiz-adv-x="736" d="M158 434V0H77V519H212L368 170L530 519H659V0H572V434L396 58H326L158 434Z" />
<glyph unicode="&#x43d;" glyph-name="uni043D" horiz-adv-x="581" d="M416 230H165V0H77V519H165V305H416V519H504V0H416V230Z" />
<glyph unicode="&#x43e;" glyph-name="uni043E" horiz-adv-x="582" d="M290 -10Q237 -10 191 8T112 60T59 145T40 260Q40 324 59 374T111 459T191 511T290 529Q344 529 390 511T469 459T522 375T542 260Q542 195 523 145T470 61T390 8T290 -10ZM290 69Q325 69
355 80T406 115T440 175T453 260Q453 309 441 345T407 404T355 439T290 451Q255 451 226 440T176 405T142 345T130 260Q130 211 142 175T175 116T226 81T290 69Z" />
<glyph unicode="&#x43f;" glyph-name="uni043F" horiz-adv-x="570" d="M405 444H165V0H77V519H493V0H405V444Z" />
<glyph unicode="&#x440;" glyph-name="uni0440" horiz-adv-x="612" d="M325 69Q394 69 436 116T479 260Q479 354 437 402T325 451Q291 451 262 439T211 404T177 344T164 260Q164 212 176 176T210 116T261 81T325 69ZM338 -10Q278 -10 235 18T165 95V-177H77V519H155L163
417Q189 468 233 498T342 529Q387 529 428 513T501 463T551 379T570 260Q570 191 551 141T500 57T426 7T338 -10Z" />
<glyph unicode="&#x441;" glyph-name="uni0441" horiz-adv-x="493" d="M300 -10Q243 -10 195 8T113 60T59 144T40 258Q40 321 59 371T114 457T196 510T300 529Q347 529 387 519T455 489L433 413Q408 427 376 439T301 451Q223 451 177 403T130 258Q130 167 176
118T300 69Q338 69 369 79T428 105L449 32Q421 12 385 1T300 -10Z" />
<glyph unicode="&#x442;" glyph-name="uni0442" horiz-adv-x="477" d="M281 444V0H193V444H35V519H442V444H281Z" />
<glyph unicode="&#x443;" glyph-name="uni0443" horiz-adv-x="521" d="M111 -187Q94 -187 80 -185T56 -179L67 -102Q72 -104 82 -106T109 -108Q146 -108 170 -91T215 -35L15 519H110L263 79L419 519H505L322 6Q288 -88 240 -137T111 -187Z" />
<glyph unicode="&#x444;" glyph-name="uni0444" horiz-adv-x="726" d="M320 -177V-8Q261 -6 210 12T122 63T62 146T40 260Q40 324 62 373T122 456T211 507T320 527V727H407V527Q465 525 515 507T604 456T664 373T686 260Q686 195 664 146T604 63T515 12T407 -8V-177H320ZM130
260Q130 212 144 177T184 119T245 83T320 69V451Q279 449 245 437T185 401T145 342T130 260ZM595 260Q595 308 581 343T541 401T481 436T407 451V69Q447 71 481 83T541 119T580 177T595 260Z" />
<glyph unicode="&#x445;" glyph-name="uni0445" horiz-adv-x="513" d="M251 205L110 0H21L208 269L40 519H145L270 334L389 519H480L312 272L493 0H389L251 205Z" />
<glyph unicode="&#x446;" glyph-name="uni0446" horiz-adv-x="596" d="M496 -148L485 0H77V519H165V75H405V519H493V75H571V-148H496Z" />
<glyph unicode="&#x447;" glyph-name="uni0447" horiz-adv-x="557" d="M391 0V231Q365 210 329 197T244 184Q161 184 114 228T67 364V519H156V366Q156 305 183 281T255 257Q301 257 337 274T391 317V519H479V0H391Z" />
<glyph unicode="&#x448;" glyph-name="uni0448" horiz-adv-x="802" d="M77 519H165V75H357V519H445V75H637V519H725V0H77V519Z" />
<glyph unicode="&#x449;" glyph-name="uni0449" horiz-adv-x="828" d="M728 -148L717 0H77V519H165V75H357V519H445V75H637V519H725V75H803V-148H728Z" />
<glyph unicode="&#x44a;" glyph-name="uni044A" horiz-adv-x="592" d="M256 263V75H339Q396 75 431 96T467 168Q467 219 435 241T345 263H256ZM167 444H35V519H256V338H345Q444 338 500 299T556 173Q556 128 540 95T495 41T426 10T339 0H167V444Z" />
<glyph unicode="&#x44b;" glyph-name="uni044B" horiz-adv-x="701" d="M624 0H536V519H624V0ZM165 263V75H244Q301 75 336 96T372 168Q372 219 340 241T251 263H165ZM77 519H165V338H251Q349 338 405 299T461 173Q461 128 445 95T400 41T331 10T244 0H77V519Z" />
<glyph unicode="&#x44c;" glyph-name="uni044C" horiz-adv-x="499" d="M162 263V75H246Q303 75 338 96T374 168Q374 219 342 241T253 263H162ZM74 519H162V338H253Q352 338 407 299T463 173Q463 128 447 95T402 41T333 10T246 0H74V519Z" />
<glyph unicode="&#x44d;" glyph-name="uni044D" horiz-adv-x="483" d="M194 -10Q149 -10 111 1T47 32L67 109Q120 68 193 68Q346 68 358 229H149V304H356Q347 373 308 411T198 449Q157 449 124 440T62 413L40 487Q68 504 107 516T198 529Q315 529 381 458T448
259Q448 196 431 146T380 62T300 9T194 -10Z" />
<glyph unicode="&#x44e;" glyph-name="uni044E" horiz-adv-x="772" d="M490 -10Q442 -10 401 6T328 52T276 128T252 230H165V0H77V519H165V305H254Q260 359 280 400T331 470T403 514T490 529Q542 529 586 511T662 459T713 375T732 260Q732 195 714 145T663 61T586
8T490 -10ZM490 69Q523 69 550 80T598 115T629 175T641 260Q641 309 630 345T598 404T551 439T490 451Q458 451 431 440T383 405T352 345T340 260Q340 211 351 175T383 116T430 81T490 69Z" />
<glyph unicode="&#x44f;" glyph-name="uni044F" horiz-adv-x="524" d="M359 263V444H290Q234 444 198 423T162 355Q162 306 194 285T285 263H359ZM359 188H270L137 0H36L186 210Q132 226 103 259T73 351Q73 395 89 426T134 478T203 509T290 519H446V0H359V188Z" />
<glyph unicode="&#x451;" glyph-name="uni0451" horiz-adv-x="543" d="M285 451Q227 451 186 416T134 310H413Q415 346 406 372T380 416T339 442T285 451ZM492 44Q481 36 465 27T425 10T373 -4T307 -10Q176 -10 108 61T40 260Q40 323 58 373T110 457T188 510T287
529Q342 529 386 510T458 454T497 363T497 236H131Q136 152 182 111T312 69Q367 69 405 86T469 122L492 44ZM391 595Q365 595 350 611T334 650Q334 675 349 691T391 708Q417 708 432 692T448 650Q448 627 433 611T391 595ZM175 595Q150 595 134 611T118 650Q118
675 134 691T175 708Q201 708 216 692T232 650Q232 627 217 611T175 595Z" />
<glyph unicode="&#x452;" glyph-name="uni0452" horiz-adv-x="596" d="M524 7Q524 -74 483 -125T345 -186L331 -107Q362 -104 382 -95T415 -71T431 -38T436 1L435 355Q435 409 408 430T333 451Q273 451 236 424T175 353V0H88V576H7V641H88V716H175V641H326V576H175V519L173
426H175Q196 469 241 499T356 529Q433 529 478 489T524 364V7V7Z" />
<glyph unicode="&#x453;" glyph-name="uni0453" horiz-adv-x="437" d="M165 444V0H77V519H397V444H165ZM233 746H345L232 588H156L233 746Z" />
<glyph unicode="&#x454;" glyph-name="uni0454" horiz-adv-x="489" d="M448 32Q420 15 381 3T291 -10Q233 -10 187 8T108 61T58 146T40 260Q40 323 57 373T108 457T188 510T295 529Q340 529 377 518T441 487L422 408Q396 428 364 439T296 451Q150 451 132 304H349V229H131Q138
152 178 111T291 69Q331 69 365 81T427 109L448 32V32Z" />
<glyph unicode="&#x455;" glyph-name="uni0455" horiz-adv-x="492" d="M243 -10Q172 -10 125 3T47 37L68 114Q96 94 141 79T246 64Q295 64 328 83T361 145Q361 168 352 181T326 203T286 216T237 226Q205 233 173 242T116 269T74 312T58 378Q58 448 111 488T261
529Q315 529 355 519T428 493L407 418Q391 427 376 434T343 445T306 452T260 455Q206 455 176 439T145 380Q145 363 153 352T175 332T210 319T256 307Q290 300 324 292T386 267T431 222T449 147Q449 102 431 72T383 24T317 -2T243 -10Z" />
<glyph unicode="&#x456;" glyph-name="uni0456" horiz-adv-x="241" d="M122 595Q96 595 80 611T63 652Q63 675 79 692T122 710Q148 710 163 693T178 652Q178 628 163 612T122 595ZM165 519V0H77V519H165Z" />
<glyph unicode="&#x457;" glyph-name="uni0457" horiz-adv-x="241" d="M208 595Q182 595 167 611T152 650Q152 675 167 691T208 708Q234 708 249 692T265 650Q265 627 250 611T208 595ZM33 595Q8 595 -8 611T-24 650Q-24 675 -8 691T33 708Q59 708 75 692T91 650Q91
627 75 611T33 595ZM165 519V0H77V519H165Z" />
<glyph unicode="&#x458;" glyph-name="uni0458" horiz-adv-x="253" d="M132 595Q106 595 90 611T74 652Q74 675 90 692T132 710Q158 710 174 693T190 652Q190 628 174 612T132 595ZM-16 -107Q15 -104 35 -95T68 -71T84 -38T89 1V519H176V7Q176 -74 135 -125T-2
-186L-16 -107Z" />
<glyph unicode="&#x459;" glyph-name="uni0459" horiz-adv-x="825" d="M198 134Q181 63 144 30T39 -2L26 78Q95 75 115 152Q130 210 134 298T139 519H477V338H577Q676 338 732 299T789 173Q789 128 773 95T727 41T658 10T571 0H389V444H222Q221 345 217 268T198
134ZM571 75Q628 75 663 96T699 168Q699 219 668 241T577 263H477V75H571Z" />
<glyph unicode="&#x45a;" glyph-name="uni045A" horiz-adv-x="841" d="M504 251V75H589Q645 75 680 95T716 163Q716 209 684 230T594 251H504ZM416 251H165V0H77V519H165V326H416V519H504V326H594Q693 326 749 289T805 168Q805 124 789 92T744 40T676 10T589 0H416V251Z" />
<glyph unicode="&#x45b;" glyph-name="uni045B" horiz-adv-x="596" d="M333 451Q273 451 236 424T175 353V0H87V576H7V641H87V716H175V641H326V576H175V519L173 426H175Q196 469 241 499T355 529Q432 529 477 489T523 364V0H435V355Q435 409 408 430T333 451Z" />
<glyph unicode="&#x45c;" glyph-name="uni045C" horiz-adv-x="519" d="M211 221H165V0H77V519H165V296H215L397 519H497L284 263L501 0H394L211 221ZM268 746H380L267 588H191L268 746Z" />
<glyph unicode="&#x45e;" glyph-name="uni045E" horiz-adv-x="521" d="M269 588Q229 588 200 598T151 627T121 670T111 724H200Q200 686 218 669T269 652Q301 652 319 669T337 724H425Q425 667 386 628T269 588ZM111 -187Q94 -187 80 -185T56 -179L67 -102Q72
-104 82 -106T109 -108Q146 -108 170 -91T215 -35L15 519H110L263 79L419 519H505L322 6Q288 -88 240 -137T111 -187Z" />
<glyph unicode="&#x45f;" glyph-name="uni045F" horiz-adv-x="586" d="M335 0L330 -148H256L250 0H77V519H165V75H421V519H508V0H335Z" />
<glyph unicode="&#x490;" glyph-name="uni0490" horiz-adv-x="534" d="M184 631V0H89V716H390L401 885H487V631H184Z" />
<glyph unicode="&#x491;" glyph-name="uni0491" horiz-adv-x="437" d="M165 444V0H77V519H311L322 667H397V444H165Z" />
<glyph unicode="&#x492;" glyph-name="uni0492" horiz-adv-x="572" d="M28 398H127V716H525V631H222V398H414V324H222V0H127V324H28V398Z" />
<glyph unicode="&#x493;" glyph-name="uni0493" horiz-adv-x="465" d="M28 295H105V519H425V444H193V295H329V231H193V0H105V231H28V295Z" />
<glyph unicode="&#x49a;" glyph-name="uni049A" horiz-adv-x="668" d="M247 312H184V0H89V716H184V397H243L499 716H605L322 364L546 85H642V-170H555L544 0H499L247 312Z" />
<glyph unicode="&#x49b;" glyph-name="uni049B" horiz-adv-x="540" d="M211 221H165V0H77V519H165V296H215L397 519H497L284 263L439 75H521V-148H445L434 0H394L211 221Z" />
<glyph unicode="&#x4a2;" glyph-name="uni04A2" horiz-adv-x="787" d="M552 313H184V0H89V716H184V398H552V716H646V85H739V-170H652L641 0H552V313Z" />
<glyph unicode="&#x4a3;" glyph-name="uni04A3" horiz-adv-x="607" d="M416 230H165V0H77V519H165V305H416V519H504V75H582V-148H507L496 0H416V230Z" />
<glyph unicode="&#x4ae;" glyph-name="uni04AE" horiz-adv-x="611" d="M259 0V307L13 716H122L310 390L502 716H598L355 312V0H259Z" />
<glyph unicode="&#x4af;" glyph-name="uni04AF" horiz-adv-x="521" d="M216 -177V0L15 519H110L264 111L416 519H505L304 0V-177H216Z" />
<glyph unicode="&#x4b0;" glyph-name="uni04B0" horiz-adv-x="611" d="M259 0V252H84V326H247L13 716H122L310 390L502 716H598L363 326H530V252H355V0H259Z" />
<glyph unicode="&#x4b1;" glyph-name="uni04B1" horiz-adv-x="521" d="M216 -177V-70H66V0H216L15 519H110L264 111L416 519H505L304 0H455V-70H304V-177H216Z" />
<glyph unicode="&#x4ba;" glyph-name="uni04BA" horiz-adv-x="689" d="M173 716V376Q212 413 261 433T371 453Q423 453 467 439T542 393T591 314T609 198V0H514V193Q514 285 476 329T371 373Q304 373 256 351T173 280V0H78V716H173Z" />
<glyph unicode="&#x4bb;" glyph-name="uni04BB" horiz-adv-x="586" d="M323 451Q263 451 226 424T165 353V0H77V716H165V519L163 426H165Q186 469 231 499T345 529Q422 529 467 489T513 364V0H425V355Q425 409 398 430T323 451Z" />
<glyph unicode="&#x4d8;" glyph-name="uni04D8" horiz-adv-x="731" d="M355 -10Q44 -10 44 351V398H580Q572 514 514 577T335 641Q269 641 217 629T115 582L88 666Q129 696 194 711T336 726Q423 726 488 700T596 625T661 509T683 358Q683 275 660 207T595 91T492
17T355 -10ZM355 75Q458 75 514 137T579 313H142Q145 249 159 204T199 130T263 88T355 75Z" />
<glyph unicode="&#x4d9;" glyph-name="uni04D9" horiz-adv-x="543" d="M257 68Q315 68 356 103T408 209H129Q127 173 136 147T162 103T203 77T257 68ZM50 475Q61 483 77 492T117 509T169 523T235 529Q366 529 434 458T502 259Q502 196 484 146T432 62T354 9T255
-10Q200 -10 156 9T84 65T45 156T45 283H411Q406 367 360 408T230 450Q175 450 137 433T73 397L50 475Z" />
<glyph unicode="&#x4e8;" glyph-name="uni04E8" horiz-adv-x="780" d="M390 -10Q318 -10 255 14T146 86T74 202T47 361Q47 451 73 519T146 633T255 702T390 726Q464 726 527 703T635 633T707 519T733 360Q733 271 707 202T636 86T527 15T390 -10ZM390 641Q343
641 301 628T227 587T173 514T146 405H634Q628 469 607 513T554 586T480 628T390 641ZM390 75Q438 75 480 88T556 131T609 208T635 321H145Q150 254 171 208T224 132T299 89T390 75Z" />
<glyph unicode="&#x4e9;" glyph-name="uni04E9" horiz-adv-x="582" d="M290 -10Q237 -10 191 8T112 60T59 145T40 260Q40 324 59 374T111 459T191 511T290 529Q344 529 390 511T469 459T522 375T542 260Q542 195 523 145T470 61T390 8T290 -10ZM290 451Q229 451
185 416T129 304H454Q448 342 434 369T397 415T348 442T290 451ZM290 69Q354 69 400 107T455 229H127Q131 188 145 158T181 108T230 79T290 69Z" />
</font>
</defs>
</svg>
